<?xml version="1.0" standalone="no"?>
<!DOCTYPE svg PUBLIC "-//W3C//DTD SVG 1.1//EN" "http://www.w3.org/Graphics/SVG/1.1/DTD/svg11.dtd" >
<svg xmlns="http://www.w3.org/2000/svg" xmlns:xlink="http://www.w3.org/1999/xlink" version="1.1">
<metadata>
Created by FontForge 20170731 at Fri Sep 18 04:08:30 2020
 By Aleksey,,,
Copyright (c) 2016 by Radomir Tinkov. All rights reserved.
</metadata>
<defs>
<font id="Gilroy-Black" horiz-adv-x="1206" >
  <font-face 
    font-family="Gilroy Black"
    font-weight="900"
    font-stretch="normal"
    units-per-em="2048"
    panose-1="0 0 10 0 0 0 0 0 0 0"
    ascent="1638"
    descent="-410"
    x-height="1024"
    cap-height="1434"
    bbox="-954 -567 2425 2017"
    underline-thickness="102"
    underline-position="-409"
    unicode-range="U+0020-FB02"
  />
<missing-glyph horiz-adv-x="1024" 
d="M840 1638v-2048h-650v2048h650zM682 1501h-338v-67h133v-76h-135v-68h340v68h-135v76h135v67zM547 1237h-205v-213h340v70h-135v143zM477 1167v-73h-67v73h67zM682 969h-340v-68h135v-76h-135v-67h205v143h135v68zM682 846h-68v-135h-272v-70h340v205zM682 596h-205v-115
h70v47h67v-96h-204v164h-68v-231h340v231zM682 242h-340v-232h340v232zM614 174v-96h-204v96h204zM682 -37h-340v-67h143l-143 -97v-67h340v67h-209l143 97h66v67z" />
    <glyph glyph-name="fi" unicode="fi" horiz-adv-x="1171" 
d="M1073 1024v-1024h-340v698h-233v-698h-340v698h-129v326h129q0 440 516 440q135 0 266 -30v-297q-134 18 -252 18q-93 0 -142 -29q-48 -28 -48 -102h573z" />
    <glyph glyph-name="fl" unicode="fl" horiz-adv-x="1171" 
d="M676 1464q183 0 397 -41v-1423h-340v1174q-28 2 -61 2q-78 0 -125 -38t-47 -114h135v-326h-135v-698h-340v698h-129v326h129q0 440 516 440z" />
    <glyph glyph-name="f_f" unicode="ff" horiz-adv-x="1253" 
d="M1253 1169q-174 12 -174 -125v-20h174v-326h-174v-698h-342v698h-237v-698h-340v698h-129v326h129q0 221 130 338t386 102v-315q-176 12 -176 -125h237v20q0 221 130 338q131 118 386 103v-316z" />
    <glyph glyph-name="f_f_i" unicode="ffi" horiz-adv-x="1751" 
d="M1653 1024v-1024h-342v698h-232v-698h-342v698h-237v-698h-340v698h-129v326h129q0 221 130 338t386 102v-315q-176 12 -176 -125h237v20q0 441 516 441q132 0 267 -31v-297q-138 19 -252 19q-95 0 -142 -29t-47 -103v-20h574z" />
    <glyph glyph-name="f_f_l" unicode="ffl" horiz-adv-x="1751" 
d="M1253 1485q183 0 400 -41v-1444h-342v1194q-28 2 -62 2q-77 0 -124 -38q-46 -37 -46 -114v-20h133v-326h-133v-698h-342v698h-237v-698h-340v698h-129v326h129q0 221 130 338t386 102v-315q-176 12 -176 -125h237v20q0 441 516 441z" />
    <glyph glyph-name=".notdef" horiz-adv-x="1024" 
d="M840 1638v-2048h-650v2048h650zM682 1501h-338v-67h133v-76h-135v-68h340v68h-135v76h135v67zM547 1237h-205v-213h340v70h-135v143zM477 1167v-73h-67v73h67zM682 969h-340v-68h135v-76h-135v-67h205v143h135v68zM682 846h-68v-135h-272v-70h340v205zM682 596h-205v-115
h70v47h67v-96h-204v164h-68v-231h340v231zM682 242h-340v-232h340v232zM614 174v-96h-204v96h204zM682 -37h-340v-67h143l-143 -97v-67h340v67h-209l143 97h66v67z" />
    <glyph glyph-name=".null" horiz-adv-x="0" 
 />
    <glyph glyph-name="nonmarkingreturn" horiz-adv-x="681" 
 />
    <glyph glyph-name="space" unicode=" " horiz-adv-x="464" 
 />
    <glyph glyph-name="exclam" unicode="!" horiz-adv-x="602" 
d="M160 522l-68 502v410h418v-410l-68 -502h-282zM301 -29q-86 0 -150 62q-63 61 -63 151q0 88 63 151q62 62 150 62q89 0 151 -62t62 -151q0 -90 -62 -151q-64 -62 -151 -62z" />
    <glyph glyph-name="quotedbl" unicode="&#x22;" horiz-adv-x="905" 
d="M133 903l-41 531h316l-41 -531h-234zM539 903l-41 531h315l-41 -531h-233z" />
    <glyph glyph-name="numbersign" unicode="#" horiz-adv-x="1292" 
d="M1212 788h-206l-25 -143h209l-39 -246h-211l-49 -297h-262l49 297h-168l-49 -297h-262l49 297h-207l39 246h209l24 143h-209l39 246h211l49 297h263l-50 -297h168l50 297h262l-49 -297h204zM719 645l24 143h-168l-24 -143h168z" />
    <glyph glyph-name="dollar" unicode="$" horiz-adv-x="1138" 
d="M1102 420q0 -192 -119 -308q-120 -117 -319 -139v-178h-144v176q-178 12 -306 100q-126 87 -177 234l317 178q45 -134 166 -164v244l-18 6q-96 35 -160 68q-65 34 -129 85q-66 52 -97 127q-32 76 -32 173q0 192 123 308t313 132v176h144v-180q293 -34 417 -301l-311 -174
q-30 95 -106 123v-242h2q5 -2 58 -22q8 -3 63 -25q30 -12 59 -25q43 -19 59 -31q6 -4 23 -16t28 -19q36 -25 50 -43q2 -3 15 -20t22 -29q24 -29 33 -61q13 -44 18 -70q8 -43 8 -83zM440 1020q0 -51 80 -92v186q-80 -21 -80 -94zM664 322q81 22 81 92q0 55 -81 92v-184z" />
    <glyph glyph-name="percent" unicode="%" horiz-adv-x="1685" 
d="M449 729q-161 0 -269 108t-108 261q0 154 108 260q107 106 269 106q160 0 266 -106t106 -260q0 -156 -107 -262q-109 -107 -265 -107zM285 225l942 1024l143 -82l-944 -1022zM446 989q47 0 77 32q30 31 30 77t-30 76t-77 30q-44 0 -74 -30t-30 -76q0 -48 30 -78
q31 -31 74 -31zM1241 -29q-160 0 -269 107q-108 107 -108 260q0 155 108 262q109 107 269 107q159 0 266 -108q107 -109 107 -261q0 -154 -108 -260q-109 -107 -265 -107zM1239 231q45 0 75 32q29 30 29 75q0 49 -29 78q-30 30 -75 30t-75 -30q-29 -29 -29 -78q0 -47 29 -76
q31 -31 75 -31z" />
    <glyph glyph-name="ampersand" unicode="&#x26;" horiz-adv-x="1392" 
d="M1362 106l-281 -161l-120 131q-167 -107 -373 -107q-233 0 -375 122q-141 122 -141 317q0 254 231 399q-65 109 -65 233q0 185 132 305q131 119 339 119q349 0 493 -321l-309 -180q-57 153 -172 153q-53 0 -83 -30t-30 -74q0 -30 18 -65q19 -37 33 -53q15 -18 62 -71
l242 -268q41 95 63 209l295 -170q-40 -150 -133 -293zM625 287q65 0 120 24l-241 262q-62 -56 -62 -137q0 -65 46 -107t137 -42z" />
    <glyph glyph-name="quotesingle" unicode="'" horiz-adv-x="497" 
d="M133 903l-41 531h316l-41 -531h-234z" />
    <glyph glyph-name="parenleft" unicode="(" horiz-adv-x="669" 
d="M317 -205q-225 450 -225 922q0 471 225 921h342q-225 -450 -225 -921q0 -472 225 -922h-342z" />
    <glyph glyph-name="parenright" unicode=")" horiz-adv-x="669" 
d="M352 -205h-342q226 452 226 922q0 469 -226 921h342q226 -452 226 -921q0 -470 -226 -922z" />
    <glyph glyph-name="asterisk" unicode="*" horiz-adv-x="829" 
d="M735 1239v-197l-186 21l117 -143l-164 -103l-88 168l-86 -168l-164 103l115 143l-187 -21v197l187 -20l-115 143l164 102l86 -168l88 168l164 -102l-117 -143z" />
    <glyph glyph-name="plus" unicode="+" horiz-adv-x="1146" 
d="M1063 879v-324h-328v-328h-323v328h-328v324h328v327h323v-327h328z" />
    <glyph glyph-name="comma" unicode="," horiz-adv-x="618" 
d="M535 356l-173 -643h-274l72 643h375z" />
    <glyph glyph-name="hyphen" unicode="-" horiz-adv-x="1024" 
d="M113 455v323h798v-323h-798z" />
    <glyph glyph-name="period" unicode="." horiz-adv-x="591" 
d="M297 -29q-90 0 -153 63q-62 62 -62 150t63 151q62 62 152 62q88 0 150 -62q63 -63 63 -151q0 -87 -63 -150t-150 -63z" />
    <glyph glyph-name="slash" unicode="/" horiz-adv-x="1064" 
d="M195 -205h-144l819 1843h144z" />
    <glyph glyph-name="zero" unicode="0" horiz-adv-x="1290" 
d="M645 -31q-281 0 -437 204q-157 205 -157 544t157 544q155 203 437 203t437 -203q157 -205 157 -544t-157 -544q-156 -204 -437 -204zM645 326q227 0 227 391t-227 391t-227 -391t227 -391z" />
    <glyph glyph-name="one" unicode="1" horiz-adv-x="847" 
d="M399 1434h316v-1434h-367v1049l-250 -64l-88 309z" />
    <glyph glyph-name="two" unicode="2" horiz-adv-x="1103" 
d="M43 0v266l475 502q72 78 105 126q32 47 32 95q0 54 -33 86q-34 33 -94 33q-126 0 -192 -150l-316 177q68 160 205 245q135 84 299 84q204 0 352 -122q146 -121 146 -332q0 -127 -58 -231q-58 -105 -171 -222l-195 -203h449v-354h-1004z" />
    <glyph glyph-name="three" unicode="3" horiz-adv-x="1122" 
d="M764 850q138 -44 221 -148q84 -105 84 -251q0 -233 -151 -357q-152 -125 -375 -125q-180 0 -317 82t-199 242l319 182q45 -149 197 -149q80 0 120 36q42 38 42 99t-42 97t-120 36h-78l-141 209l229 280h-481v351h932v-289z" />
    <glyph glyph-name="four" unicode="4" horiz-adv-x="1183" 
d="M1167 553v-334h-143v-219h-365v219h-628v334l428 881h405l-432 -881h227v258h365v-258h143z" />
    <glyph glyph-name="five" unicode="5" horiz-adv-x="1126" 
d="M594 930q210 0 351 -123q140 -122 140 -348q0 -235 -151 -362q-152 -128 -377 -128q-189 0 -328 81t-202 243l319 182q45 -149 211 -149q79 0 120 35q42 36 42 98q0 63 -42 98q-43 35 -114 35h-459l60 842h844v-351h-506l-10 -153h102z" />
    <glyph glyph-name="six" unicode="6" horiz-adv-x="1146" 
d="M657 977q210 -27 334 -163q125 -137 125 -339q0 -224 -149 -364q-151 -142 -394 -142q-242 0 -393 142q-149 140 -149 364q0 168 90 297l424 662h416zM573 305q77 0 126 45q51 46 51 125q0 82 -50 127q-49 45 -127 45q-77 0 -127 -45q-49 -45 -49 -127q0 -83 49 -126
q50 -44 127 -44z" />
    <glyph glyph-name="seven" unicode="7" horiz-adv-x="1003" 
d="M2 1434h971v-304l-449 -1130h-395l426 1079h-553v355z" />
    <glyph glyph-name="eight" unicode="8" horiz-adv-x="1165" 
d="M928 750q190 -118 190 -347q0 -201 -139 -316q-140 -116 -395 -116q-258 0 -398 116q-139 115 -139 316q0 228 191 347q-142 106 -142 286q0 201 137 314q136 112 351 112q213 0 348 -113q137 -114 137 -313q0 -181 -141 -286zM584 1130q-68 0 -104 -33q-38 -35 -38 -89
q0 -57 38 -90t104 -33q62 0 100 34q39 35 39 89t-39 89q-37 33 -100 33zM584 307q77 0 123 40q47 41 47 108q0 68 -47 109q-46 40 -123 40q-78 0 -124 -40t-46 -109q0 -68 46 -108t124 -40z" />
    <glyph glyph-name="nine" unicode="9" horiz-adv-x="1146" 
d="M1116 958q0 -167 -90 -296l-424 -662h-416l303 457q-209 27 -333 163q-125 137 -125 338q0 225 149 365q150 141 393 141q244 0 394 -141q149 -140 149 -365zM397 958q0 -82 49 -127q50 -45 127 -45t127 45t50 127t-50 126t-127 44t-126 -45q-50 -45 -50 -125z" />
    <glyph glyph-name="colon" unicode=":" horiz-adv-x="591" 
d="M297 629q-91 0 -153 62t-62 151q0 87 63 150t152 63q87 0 150 -63t63 -150q0 -88 -63 -151q-62 -62 -150 -62zM297 -29q-90 0 -153 63q-62 62 -62 150t63 151q62 62 152 62q88 0 150 -62q63 -63 63 -151q0 -87 -63 -150t-150 -63z" />
    <glyph glyph-name="semicolon" unicode=";" horiz-adv-x="622" 
d="M328 629q-91 0 -153 62t-62 151q0 87 63 150t152 63q87 0 150 -63t63 -150q0 -88 -63 -151q-62 -62 -150 -62zM535 356l-173 -643h-274l72 643h375z" />
    <glyph glyph-name="less" unicode="&#x3c;" horiz-adv-x="1067" 
d="M995 1268v-353l-555 -198l555 -199v-352l-921 399v303z" />
    <glyph glyph-name="equal" unicode="=" horiz-adv-x="1046" 
d="M72 778v326h901v-326h-901zM72 330v325h901v-325h-901z" />
    <glyph glyph-name="greater" unicode="&#x3e;" horiz-adv-x="1067" 
d="M72 1268l921 -400v-303l-921 -399v352l555 199l-555 198v353z" />
    <glyph glyph-name="question" unicode="?" horiz-adv-x="1120" 
d="M365 522q0 84 48 159q47 74 105 121q64 52 106 102q48 57 48 108q0 98 -121 98q-125 0 -197 -162l-311 178q68 167 208 252q142 86 314 86q198 0 334 -109q137 -110 137 -298q0 -88 -34 -159q-36 -75 -80 -122q-32 -34 -95 -91q-45 -40 -81 -83q-33 -39 -33 -80h-348z
M539 -29q-87 0 -151 62q-62 61 -62 151q0 89 62 151t151 62q88 0 150 -62q63 -63 63 -151q0 -90 -63 -151q-64 -62 -150 -62z" />
    <glyph glyph-name="at" unicode="@" horiz-adv-x="1574" 
d="M803 1253q217 0 385 -105q167 -104 250 -263q82 -157 82 -332q0 -218 -89 -339q-89 -120 -251 -120q-110 0 -183 45t-106 123q-76 -88 -195 -88q-135 0 -218 95t-83 243t83 243t218 95q103 0 176 -68v43h279v-483q0 -129 102 -129q78 0 126 83t48 257q0 259 -180 438
q-179 178 -444 178q-277 0 -466 -189q-190 -190 -190 -468q0 -285 196 -472q194 -185 497 -185q176 0 309 45v-88q-135 -41 -309 -41q-336 0 -559 210q-224 210 -224 531q0 310 214 525q214 216 532 216zM774 406q44 0 70 29t26 77t-25 77t-71 29t-72 -29t-26 -77t26 -77
t72 -29z" />
    <glyph glyph-name="A" unicode="A" horiz-adv-x="1374" 
d="M987 0l-61 207h-477l-62 -207h-397l473 1434h446l473 -1434h-395zM543 522h288l-145 488z" />
    <glyph glyph-name="B" unicode="B" horiz-adv-x="1232" 
d="M1018 741q180 -107 180 -321q0 -191 -131 -305q-132 -115 -350 -115h-604v1434h565q214 0 344 -110q129 -110 129 -298q0 -180 -133 -285zM668 1106h-189v-225h189q50 0 83 29t33 83q0 53 -32 82q-34 31 -84 31zM707 328q57 0 90 33q34 34 34 88q0 55 -34 88
q-33 32 -90 32h-228v-241h228z" />
    <glyph glyph-name="C" unicode="C" horiz-adv-x="1472" 
d="M805 -31q-325 0 -536 214q-212 215 -212 534q0 318 212 533q211 214 536 214q193 0 360 -92q165 -90 260 -248l-317 -182q-40 76 -122 120t-181 44q-173 0 -278 -108t-105 -281q0 -174 105 -282q104 -107 278 -107q99 0 181 44q81 44 122 122l317 -185
q-95 -158 -259 -249t-361 -91z" />
    <glyph glyph-name="D" unicode="D" horiz-adv-x="1449" 
d="M696 1434q297 0 497 -206t200 -511t-200 -511t-497 -206h-583v1434h583zM696 354q149 0 244 100q94 98 94 263t-94 263q-94 99 -244 99h-207v-725h207z" />
    <glyph glyph-name="E" unicode="E" horiz-adv-x="1095" 
d="M479 344h555v-344h-921v1434h911v-342h-545v-199h494v-338h-494v-211z" />
    <glyph glyph-name="F" unicode="F" horiz-adv-x="1060" 
d="M993 1079h-514v-233h504v-354h-504v-492h-366v1434h880v-355z" />
    <glyph glyph-name="G" unicode="G" horiz-adv-x="1593" 
d="M1536 821v-145q0 -316 -198 -511q-199 -196 -513 -196q-335 0 -552 215q-216 214 -216 531q0 314 215 532q214 217 533 217q201 0 367 -90q169 -91 262 -239l-312 -179q-44 69 -126 109q-84 41 -187 41q-171 0 -279 -111t-108 -282q0 -168 107 -281q109 -115 302 -115
q251 0 330 189h-348v315h723z" />
    <glyph glyph-name="H" unicode="H" horiz-adv-x="1361" 
d="M883 1434h364v-1434h-364v551h-404v-551h-366v1434h366v-531h404v531z" />
    <glyph glyph-name="I" unicode="I" horiz-adv-x="591" 
d="M113 1434h366v-1434h-366v1434z" />
    <glyph glyph-name="J" unicode="J" horiz-adv-x="1169" 
d="M547 -31q-352 0 -496 287l314 182q29 -58 71 -86q39 -26 111 -26q158 0 158 145v963h366v-969q0 -232 -142 -364q-143 -132 -382 -132z" />
    <glyph glyph-name="K" unicode="K" horiz-adv-x="1292" 
d="M1300 0h-409l-412 641v-641h-366v1434h366v-603l391 603h410l-455 -697z" />
    <glyph glyph-name="L" unicode="L" horiz-adv-x="993" 
d="M479 354h494v-354h-860v1434h366v-1080z" />
    <glyph glyph-name="M" unicode="M" horiz-adv-x="1689" 
d="M1575 1434v-1434h-365v772l-348 -575h-37l-346 573v-770h-366v1434h366l365 -613l366 613h365z" />
    <glyph glyph-name="N" unicode="N" horiz-adv-x="1382" 
d="M903 1434h365v-1434h-283l-506 721v-721h-366v1434h284l506 -721v721z" />
    <glyph glyph-name="O" unicode="O" horiz-adv-x="1617" 
d="M809 -31q-316 0 -534 216t-218 532q0 315 218 531t534 216q315 0 533 -216q219 -217 219 -531q0 -315 -219 -532q-218 -216 -533 -216zM809 328q166 0 276 109q111 109 111 280q0 169 -111 279q-112 110 -276 110q-165 0 -277 -110q-110 -109 -110 -279q0 -171 110 -280
t277 -109z" />
    <glyph glyph-name="P" unicode="P" horiz-adv-x="1212" 
d="M670 1434q216 0 364 -142t148 -360q0 -219 -148 -361q-147 -141 -364 -141h-191v-430h-366v1434h557zM670 778q61 0 103 43t42 111q0 67 -42 109t-103 42h-191v-305h191z" />
    <glyph glyph-name="Q" unicode="Q" horiz-adv-x="1628" 
d="M1561 717q0 -260 -154 -459l129 -139l-256 -228l-141 152q-154 -74 -330 -74q-316 0 -534 216t-218 532q0 315 218 531t534 216q315 0 533 -216q219 -217 219 -531zM809 328q26 0 59 4l-192 207l258 225l219 -234q43 85 43 187q0 169 -111 279q-112 110 -276 110
q-165 0 -277 -110q-110 -109 -110 -279q0 -171 110 -280t277 -109z" />
    <glyph glyph-name="R" unicode="R" horiz-adv-x="1269" 
d="M860 0l-250 463h-131v-463h-366v1434h573q220 0 368 -141t148 -355q0 -131 -65 -237q-66 -108 -179 -171l295 -530h-393zM479 1096v-322h203q68 -2 111 43q43 44 43 117t-43 117q-43 45 -111 45h-203z" />
    <glyph glyph-name="S" unicode="S" horiz-adv-x="1198" 
d="M623 -31q-225 0 -377 97q-148 95 -209 260l313 182q80 -191 283 -191q168 0 168 97q0 63 -96 102q-34 14 -181 55q-196 57 -311 161t-115 288q0 198 143 321q142 123 355 123q180 0 319 -84t213 -243l-307 -181q-68 160 -223 160q-66 0 -99 -26q-34 -27 -34 -68
q0 -47 50 -80q47 -32 196 -76q105 -30 168 -57q59 -25 139 -77q74 -48 112 -129q37 -78 37 -185q0 -212 -149 -330q-151 -119 -395 -119z" />
    <glyph glyph-name="T" unicode="T" horiz-adv-x="1116" 
d="M1096 1434v-355h-355v-1079h-366v1079h-355v355h1076z" />
    <glyph glyph-name="U" unicode="U" horiz-adv-x="1331" 
d="M666 -31q-249 0 -409 137q-159 136 -159 365v963h367v-928q0 -180 201 -180q200 0 200 180v928h367v-963q0 -229 -159 -365q-160 -137 -408 -137z" />
    <glyph glyph-name="V" unicode="V" horiz-adv-x="1361" 
d="M463 0l-463 1434h401l279 -988l281 988h401l-463 -1434h-436z" />
    <glyph glyph-name="W" unicode="W" horiz-adv-x="2056" 
d="M412 0l-402 1434h396l221 -904l256 904h288l256 -904l224 904h393l-399 -1434h-388l-229 809l-229 -809h-387z" />
    <glyph glyph-name="X" unicode="X" horiz-adv-x="1294" 
d="M1282 0h-410l-225 381l-225 -381h-412l432 731l-415 703h411l209 -355l209 355h412l-416 -705z" />
    <glyph glyph-name="Y" unicode="Y" horiz-adv-x="1333" 
d="M1333 1434l-483 -883v-551h-367v547l-483 887h412l254 -531l256 531h411z" />
    <glyph glyph-name="Z" unicode="Z" horiz-adv-x="1110" 
d="M543 354h522v-354h-997v283l505 796h-495v355h971v-283z" />
    <glyph glyph-name="bracketleft" unicode="[" horiz-adv-x="673" 
d="M633 1313h-199v-1192h199v-326h-541v1843h541v-325z" />
    <glyph glyph-name="backslash" unicode="\" horiz-adv-x="1064" 
d="M870 -205l-819 1843h144l819 -1843h-144z" />
    <glyph glyph-name="bracketright" unicode="]" horiz-adv-x="673" 
d="M582 1638v-1843h-541v326h199v1192h-199v325h541z" />
    <glyph glyph-name="asciicircum" unicode="^" horiz-adv-x="1187" 
d="M715 1434l409 -725h-364l-166 323l-166 -323h-365l410 725h242z" />
    <glyph glyph-name="underscore" unicode="_" horiz-adv-x="1054" 
d="M51 -381v324h953v-324h-953z" />
    <glyph glyph-name="grave" unicode="`" horiz-adv-x="643" 
d="M602 1137l-164 297h-397l238 -297h323z" />
    <glyph glyph-name="a" unicode="a" horiz-adv-x="1259" 
d="M821 1024h340v-1024h-340v94q-105 -123 -291 -123q-205 0 -343 155q-138 154 -138 386t138 386q138 155 343 155q186 0 291 -123v94zM606 289q96 0 156 61q59 60 59 162t-59 162q-60 61 -156 61q-95 0 -155 -61q-60 -62 -60 -162t60 -162q60 -61 155 -61z" />
    <glyph glyph-name="b" unicode="b" horiz-adv-x="1259" 
d="M729 1053q205 0 343 -155q138 -154 138 -386t-138 -386q-138 -155 -343 -155q-186 0 -291 123v-94h-340v1434h340v-504q105 123 291 123zM653 289q96 0 156 61q59 60 59 162t-59 162q-60 61 -156 61q-95 0 -155 -61q-60 -62 -60 -162t60 -162q60 -61 155 -61z" />
    <glyph glyph-name="c" unicode="c" horiz-adv-x="1081" 
d="M594 -29q-233 0 -389 156t-156 385t156 385t389 156q150 0 275 -72t192 -193l-291 -167q-55 100 -178 100q-86 0 -143 -58q-58 -60 -58 -151t58 -151q57 -58 143 -58q126 0 178 103l291 -168q-67 -123 -192 -195t-275 -72z" />
    <glyph glyph-name="d" unicode="d" horiz-adv-x="1259" 
d="M821 1434h340v-1434h-340v94q-105 -123 -291 -123q-205 0 -343 155q-138 154 -138 386t138 386q138 155 343 155q186 0 291 -123v504zM606 289q96 0 156 61q59 60 59 162t-59 162q-60 61 -156 61q-95 0 -155 -61q-60 -62 -60 -162t60 -162q60 -61 155 -61z" />
    <glyph glyph-name="e" unicode="e" horiz-adv-x="1169" 
d="M401 387q51 -125 230 -125q109 0 186 72l246 -172q-152 -191 -440 -191q-261 0 -417 153q-157 154 -157 386q0 230 154 387q153 156 391 156q228 0 379 -154q149 -152 149 -385q0 -71 -14 -127h-707zM397 623h394q-40 143 -193 143q-158 0 -201 -143z" />
    <glyph glyph-name="f" unicode="f" horiz-adv-x="675" 
d="M676 1149q-176 12 -176 -125h176v-326h-176v-698h-340v698h-129v326h129q0 221 130 338t386 102v-315z" />
    <glyph glyph-name="g" unicode="g" horiz-adv-x="1265" 
d="M831 1024h336v-983q0 -125 -46 -218q-47 -96 -124 -152q-78 -57 -171 -84t-197 -27q-169 0 -303 63q-133 63 -201 187l283 163q73 -116 217 -116q91 0 149 47q57 46 57 137v98q-105 -127 -286 -127q-211 0 -349 152q-139 153 -139 368q0 216 139 369q138 152 349 152
q181 0 286 -127v98zM614 319q96 0 157 61q60 60 60 152q0 93 -60 153t-157 60q-96 0 -156 -60q-61 -61 -61 -153q0 -91 61 -152t156 -61z" />
    <glyph glyph-name="h" unicode="h" horiz-adv-x="1185" 
d="M723 1053q166 0 271 -114q106 -115 106 -327v-612h-340v569q0 81 -42 121q-43 41 -112 41q-80 0 -124 -48q-44 -49 -44 -138v-545h-340v1434h340v-512q92 131 285 131z" />
    <glyph glyph-name="i" unicode="i" horiz-adv-x="536" 
d="M268 1108q-80 0 -138 58t-58 139q0 80 58 137t138 57t139 -57q58 -57 58 -137q0 -81 -58 -139t-139 -58zM98 0v1024h340v-1024h-340z" />
    <glyph glyph-name="j" unicode="j" horiz-adv-x="567" 
d="M299 1108q-80 0 -138 58q-59 59 -59 139t59 137t138 57t138 -57t59 -137t-59 -139q-58 -58 -138 -58zM129 0v1024h340v-1024q0 -241 -119 -348t-370 -92v315q77 -4 113 26t36 99z" />
    <glyph glyph-name="k" unicode="k" horiz-adv-x="1110" 
d="M1110 0h-381l-291 436v-436h-340v1434h340v-838l264 428h394l-344 -512z" />
    <glyph glyph-name="l" unicode="l" horiz-adv-x="536" 
d="M98 0v1495h340v-1495h-340z" />
    <glyph glyph-name="m" unicode="m" horiz-adv-x="1744" 
d="M1274 1053q178 0 281 -114q104 -115 104 -312v-627h-342v588q0 143 -127 143q-70 0 -106 -46q-35 -45 -35 -126v-559h-340v588q0 143 -129 143q-70 0 -106 -46q-36 -47 -36 -126v-559h-340v1024h340v-96q95 125 277 125q176 0 262 -131q107 131 297 131z" />
    <glyph glyph-name="n" unicode="n" horiz-adv-x="1185" 
d="M723 1053q166 0 271 -114q106 -115 106 -327v-612h-340v569q0 81 -42 121q-43 41 -112 41q-80 0 -124 -48q-44 -49 -44 -138v-545h-340v1024h340v-102q92 131 285 131z" />
    <glyph glyph-name="o" unicode="o" horiz-adv-x="1193" 
d="M596 -29q-227 0 -387 157t-160 384t160 384t387 157q228 0 388 -157q159 -156 159 -384t-159 -384q-160 -157 -388 -157zM596 299q90 0 148 59q59 61 59 154t-59 154q-58 59 -148 59q-88 0 -146 -59q-59 -61 -59 -154t59 -154q58 -59 146 -59z" />
    <glyph glyph-name="p" unicode="p" horiz-adv-x="1259" 
d="M729 1053q205 0 343 -155q138 -154 138 -386t-138 -386q-138 -155 -343 -155q-186 0 -291 123v-504h-340v1434h340v-94q105 123 291 123zM653 289q96 0 156 61q59 60 59 162t-59 162q-60 61 -156 61q-95 0 -155 -61q-60 -62 -60 -162t60 -162q60 -61 155 -61z" />
    <glyph glyph-name="q" unicode="q" horiz-adv-x="1259" 
d="M821 1024h340v-1434h-340v504q-105 -123 -291 -123q-205 0 -343 155q-138 154 -138 386t138 386q138 155 343 155q186 0 291 -123v94zM606 289q96 0 156 61q59 60 59 162t-59 162q-60 61 -156 61q-95 0 -155 -61q-60 -62 -60 -162t60 -162q60 -61 155 -61z" />
    <glyph glyph-name="r" unicode="r" horiz-adv-x="776" 
d="M438 834q28 98 115 155q85 55 192 55v-376q-117 18 -211 -43q-96 -62 -96 -201v-424h-340v1024h340v-190z" />
    <glyph glyph-name="s" unicode="s" horiz-adv-x="972" 
d="M424 725q0 -29 52 -47q57 -20 127 -35q78 -17 150 -46q75 -30 127 -101t52 -181q0 -176 -131 -260t-312 -84q-344 0 -458 244l297 150q39 -113 159 -113q93 0 93 55q0 29 -52 47q-59 21 -125 37q-67 17 -147 49q-73 30 -125 100q-51 69 -51 169q0 164 121 254t291 90
q302 0 421 -238l-286 -129q-45 88 -127 88q-76 0 -76 -49z" />
    <glyph glyph-name="t" unicode="t" horiz-adv-x="806" 
d="M733 698h-213v-297q0 -68 49 -84q48 -16 164 -10v-307q-304 -37 -429 56q-124 93 -124 337v305h-153v326h153v184l340 103v-287h213v-326z" />
    <glyph glyph-name="u" unicode="u" horiz-adv-x="1185" 
d="M748 1024h339v-1024h-339v102q-92 -131 -285 -131q-167 0 -272 114t-105 327v612h340v-569q0 -81 42 -121q43 -41 112 -41q80 0 123 48q45 50 45 138v545z" />
    <glyph glyph-name="v" unicode="v" horiz-adv-x="1134" 
d="M758 1024h377l-383 -1024h-369l-383 1024h377l190 -588z" />
    <glyph glyph-name="w" unicode="w" horiz-adv-x="1634" 
d="M1249 1024h361l-314 -1024h-331l-148 520l-147 -520h-332l-313 1024h360l135 -557l154 557h287l153 -557z" />
    <glyph glyph-name="x" unicode="x" horiz-adv-x="1124" 
d="M1124 0h-385l-178 252l-178 -252h-383l371 522l-357 502h383l164 -231l164 231h385l-356 -502z" />
    <glyph glyph-name="y" unicode="y" horiz-adv-x="1124" 
d="M748 1024h376l-350 -1008q-83 -232 -231 -333q-152 -103 -387 -93v320q108 0 163 27q57 28 91 96l-410 991h381l207 -594z" />
    <glyph glyph-name="z" unicode="z" horiz-adv-x="991" 
d="M537 315h383v-315h-838v233l362 476h-342v315h797v-233z" />
    <glyph glyph-name="braceleft" unicode="{" horiz-adv-x="741" 
d="M700 -219q-235 -15 -352 90t-117 309v275q0 66 -36 88t-111 14v326q75 -8 111 14t36 88v275q0 204 117 309t352 90v-316q-129 12 -129 -83v-275q0 -190 -137 -264q137 -77 137 -266v-275q0 -96 129 -84v-315z" />
    <glyph glyph-name="bar" unicode="|" horiz-adv-x="567" 
d="M113 -410v1885h342v-1885h-342z" />
    <glyph glyph-name="braceright" unicode="}" horiz-adv-x="741" 
d="M41 -219v315q129 -12 129 84v275q0 189 137 266q-137 74 -137 264v275q0 95 -129 83v316q235 15 352 -90t117 -309v-275q0 -66 37 -88q36 -22 110 -14v-326q-74 8 -110 -14q-37 -22 -37 -88v-275q0 -204 -117 -309t-352 -90z" />
    <glyph glyph-name="asciitilde" unicode="~" horiz-adv-x="1241" 
d="M899 944l268 -125q-52 -227 -203 -305q-150 -78 -331 8q-148 68 -204 62q-57 -6 -87 -103l-270 125q52 227 204 305q151 78 332 -8q106 -47 156 -57q50 -11 80 10q32 22 55 88z" />
    <glyph glyph-name="exclamdown" unicode="&#xa1;" horiz-adv-x="602" 
d="M301 1053q87 0 151 -62q62 -61 62 -151q0 -89 -62 -151t-151 -62q-88 0 -150 62q-63 63 -63 151q0 90 63 151q64 62 150 62zM160 502h282l68 -502v-410h-418v410z" />
    <glyph glyph-name="cent" unicode="&#xa2;" horiz-adv-x="1081" 
d="M592 508q127 0 178 102l291 -168q-67 -122 -192 -194t-275 -72q-56 0 -115 10l-59 -186h-129l71 223q-141 62 -228 196q-85 131 -85 298q0 229 156 385q155 155 389 155q54 0 100 -8l60 185h129l-72 -220q164 -68 250 -221l-291 -168q-19 39 -61 68l-125 -385h8zM391 717
q0 -111 78 -168l121 377q-84 -1 -143 -60q-56 -56 -56 -149z" />
    <glyph glyph-name="sterling" unicode="&#xa3;" horiz-adv-x="1177" 
d="M545 354h622v-354h-1116v354h127v203h-106v287h106v155q0 223 140 344t331 121q350 0 486 -319l-318 -176q-46 145 -153 145q-56 0 -87 -36q-32 -37 -32 -99v-135h387v-287h-387v-203z" />
    <glyph glyph-name="currency" unicode="&#xa4;" horiz-adv-x="1091" 
d="M989 717q0 -151 -92 -266l143 -142l-88 -86l-143 144q-115 -80 -262 -80q-149 0 -262 82l-146 -146l-88 86l144 144q-91 114 -91 264t91 264l-144 143l88 86l146 -145q113 82 262 82q147 0 262 -80l143 143l88 -86l-141 -141q90 -117 90 -266zM547 602q50 0 83 31
q32 30 32 84t-32 84t-83 30q-54 0 -84 -30q-31 -31 -31 -84t31 -84t84 -31z" />
    <glyph glyph-name="yen" unicode="&#xa5;" horiz-adv-x="1292" 
d="M1333 1434l-366 -672h174v-193h-281l-10 -18v-66h291v-190h-291v-295h-367v295h-333v190h333v62l-12 22h-321v193h217l-367 672h412l254 -531l256 531h411z" />
    <glyph glyph-name="brokenbar" unicode="&#xa6;" horiz-adv-x="567" 
d="M113 717v758h342v-758h-342zM113 -410v758h342v-758h-342z" />
    <glyph glyph-name="section" unicode="&#xa7;" horiz-adv-x="1116" 
d="M1059 596q0 -155 -113 -256q64 -87 64 -211q0 -174 -128 -266t-319 -92q-353 0 -467 256l293 159q52 -133 174 -133q107 0 107 76q0 20 -15 38t-45 33q-4 2 -58 26q-23 10 -79 30q-38 14 -82 31q-144 61 -227 143q-86 84 -86 225q0 162 119 254q-54 86 -54 201
q0 170 123 262q124 92 291 92q313 0 436 -266l-276 -139q-53 129 -150 129q-40 0 -63 -20t-23 -50q0 -22 14 -42q13 -19 45 -37q17 -10 58 -28q18 -8 80 -31q42 -15 82 -32q137 -56 218 -135q81 -80 81 -217zM414 672q0 -44 33 -70q33 -25 106 -53q8 -3 31 -11.5t38 -13.5
q50 -18 70 -24q31 25 31 69q0 30 -22 54q-19 20 -44 32q-17 8 -73 31q-2 1 -60 22q-59 21 -82 31q-28 -24 -28 -67z" />
    <glyph glyph-name="dieresis" unicode="&#xa8;" horiz-adv-x="796" 
d="M205 1096q-68 0 -116 48t-48 116q0 67 48 115t116 48q65 0 113 -48q49 -49 49 -115q0 -67 -49 -116q-48 -48 -113 -48zM602 1096q-66 0 -114 48t-48 116q0 67 48 115t114 48q68 0 116 -48t48 -115q0 -68 -48 -116t-116 -48z" />
    <glyph glyph-name="copyright" unicode="&#xa9;" horiz-adv-x="1595" 
d="M799 -25q-307 0 -525 218q-217 217 -217 524t217 524t525 217q307 0 524 -217t217 -524t-217 -524q-218 -218 -524 -218zM799 59q267 0 458 193t191 465t-191 465q-190 192 -458 192q-270 0 -461 -192q-191 -193 -191 -465t191 -465t461 -193zM805 313q-168 0 -288 120
t-120 284q0 163 120 283t288 120q104 0 196 -53t148 -145l-242 -142q-39 62 -110 62q-54 0 -89 -38q-34 -37 -34 -87t34 -87q35 -38 89 -38q71 0 110 61l242 -141q-55 -93 -147 -145q-96 -54 -197 -54z" />
    <glyph glyph-name="guillemotleft" unicode="&#xab;" horiz-adv-x="1165" 
d="M633 1032l-230 -399l230 -400h-289l-231 400l231 399h289zM1053 1032l-232 -399l232 -400h-291l-230 400l230 399h291z" />
    <glyph glyph-name="logicalnot" unicode="&#xac;" horiz-adv-x="1165" 
d="M72 879h1022v-570h-346v246h-676v324z" />
    <glyph glyph-name="registered" unicode="&#xae;" horiz-adv-x="1595" 
d="M799 1458q307 0 524 -217t217 -524t-217 -524q-218 -218 -524 -218q-307 0 -525 218q-217 217 -217 524t217 524t525 217zM799 59q267 0 458 193t191 465t-191 465q-190 192 -458 192q-270 0 -461 -192q-191 -193 -191 -465t191 -465t461 -193zM1143 838
q0 -146 -105 -234l152 -266h-289l-98 199h-43v-199h-268v758h360q120 0 205 -72q86 -72 86 -186zM809 860h-49v-108h49q65 0 65 55q0 53 -65 53z" />
    <glyph glyph-name="macron" unicode="&#xaf;" horiz-adv-x="714" 
d="M41 1135v266h633v-266h-633z" />
    <glyph glyph-name="degree" unicode="&#xb0;" horiz-adv-x="849" 
d="M426 944q-155 0 -260 105t-105 251q0 149 105 254t260 105q156 0 259 -105q103 -104 103 -254q0 -148 -102 -252t-260 -104zM426 1208q42 0 66 26t24 66t-26 68q-25 27 -64 27q-42 0 -67 -27q-25 -26 -25 -68q0 -41 25 -66q26 -26 67 -26z" />
    <glyph glyph-name="plusminus" unicode="&#xb1;" horiz-adv-x="1146" 
d="M735 1083h328v-323h-328v-279h-323v279h-328v323h328v279h323v-279zM84 43v326h979v-326h-979z" />
    <glyph glyph-name="acute" unicode="&#xb4;" horiz-adv-x="643" 
d="M41 1137h324l237 297h-397z" />
    <glyph glyph-name="uni00B5" unicode="&#xb5;" horiz-adv-x="1245" 
d="M1161 305h53v-305h-147q-156 0 -240 96q-91 -127 -288 -127q-56 0 -101 15v-394h-340v1434h340v-569q0 -83 42 -123q43 -41 114 -41q78 0 122 48q44 49 44 140v545h340v-657q0 -62 61 -62z" />
    <glyph glyph-name="paragraph" unicode="&#xb6;" horiz-adv-x="1488" 
d="M1417 1434v-328h-137v-1516h-324v1516h-131v-1516h-323v924q-190 0 -326 134q-135 134 -135 325q0 192 134 326q135 135 327 135h915z" />
    <glyph glyph-name="periodcentered" unicode="&#xb7;" horiz-adv-x="591" 
d="M297 504q-91 0 -153 62t-62 151q0 87 63 150t152 63q87 0 150 -63t63 -150q0 -88 -63 -151q-62 -62 -150 -62z" />
    <glyph glyph-name="cedilla" unicode="&#xb8;" horiz-adv-x="561" 
d="M401 -94q46 -15 82 -53q37 -38 37 -105q0 -230 -479 -201v224q195 -15 195 28q0 30 -109 41v160h274v-94z" />
    <glyph glyph-name="guillemotright" unicode="&#xbb;" horiz-adv-x="1165" 
d="M403 1032l230 -399l-230 -400h-290l231 400l-231 399h290zM821 1032l232 -399l-232 -400h-289l230 400l-230 399h289z" />
    <glyph glyph-name="onequarter" unicode="&#xbc;" horiz-adv-x="1675" 
d="M223 614v545l-162 -43l-61 223l260 95h232v-820h-269zM1047 1434h233l-827 -1434h-234zM1649 350v-235h-72v-115h-250v115h-377v235l238 469h282l-227 -469h84v129h250v-129h72z" />
    <glyph glyph-name="onehalf" unicode="&#xbd;" horiz-adv-x="1662" 
d="M223 614v545l-162 -43l-61 223l260 95h232v-820h-269zM1047 1434h233l-827 -1434h-234zM1368 240h238v-240h-627v182l293 285q59 59 59 98q0 45 -53 45q-55 0 -94 -90l-219 123q96 205 323 205q128 0 219 -74q90 -74 90 -190q0 -129 -143 -262z" />
    <glyph glyph-name="threequarters" unicode="&#xbe;" horiz-adv-x="1796" 
d="M668 870q0 -137 -89 -211q-88 -73 -241 -73q-246 0 -332 192l221 127q30 -88 111 -88q65 0 65 53q0 52 -65 52h-57l-95 139l115 135h-254v238h586v-179l-133 -155q168 -62 168 -230zM1167 1434h234l-828 -1434h-233zM1769 350v-235h-71v-115h-250v115h-377v235l238 469
h282l-227 -469h84v129h250v-129h71z" />
    <glyph glyph-name="questiondown" unicode="&#xbf;" horiz-adv-x="1120" 
d="M582 1053q89 0 151 -62t62 -151q0 -88 -63 -151q-62 -62 -150 -62q-89 0 -151 62t-62 151q0 90 61 151q62 62 152 62zM756 502q0 -84 -48 -159q-46 -72 -106 -121q-61 -50 -105 -102q-48 -57 -48 -108q0 -98 120 -98q125 0 197 162l311 -178q-68 -167 -208 -252
q-142 -86 -314 -86q-198 0 -334 109q-137 110 -137 298q0 88 34 159q35 73 81 122q38 40 94 91q45 40 81 83q34 40 34 80h348z" />
    <glyph glyph-name="Agrave" unicode="&#xc0;" horiz-adv-x="1374" 
d="M881 1546h-324l-238 297h398zM987 0l-61 207h-477l-62 -207h-397l473 1434h446l473 -1434h-395zM543 522h288l-145 488z" />
    <glyph glyph-name="Aacute" unicode="&#xc1;" horiz-adv-x="1374" 
d="M1044 1843l-237 -297h-324l164 297h397zM987 0l-61 207h-477l-62 -207h-397l473 1434h446l473 -1434h-395zM543 522h288l-145 488z" />
    <glyph glyph-name="Acircumflex" unicode="&#xc2;" horiz-adv-x="1374" 
d="M678 1640l-82 -114h-307l217 317h342l217 -317h-307zM987 0l-61 207h-477l-62 -207h-397l473 1434h446l473 -1434h-395zM543 522h288l-145 488z" />
    <glyph glyph-name="Atilde" unicode="&#xc3;" horiz-adv-x="1374" 
d="M664 1573q-49 33 -74 28t-25 -69h-246q0 100 24 172q24 71 63 107q40 37 90 50q51 14 104 3q54 -11 109 -39q50 -33 74 -29q26 5 26 68h246q0 -101 -24 -173q-25 -75 -62 -109q-39 -36 -90 -48q-54 -13 -106 -1q-55 12 -109 40zM987 0l-61 207h-477l-62 -207h-397
l473 1434h446l473 -1434h-395zM543 522h288l-145 488z" />
    <glyph glyph-name="Adieresis" unicode="&#xc4;" horiz-adv-x="1374" 
d="M487 1505q-67 0 -115 48t-48 116t48 116t115 48q66 0 114 -48t48 -116t-48 -116t-114 -48zM885 1505q-66 0 -114 48t-48 116t48 116t114 48q67 0 115 -48q49 -49 49 -116t-49 -116q-48 -48 -115 -48zM987 0l-61 207h-477l-62 -207h-397l473 1434h446l473 -1434h-395z
M543 522h288l-145 488z" />
    <glyph glyph-name="Aring" unicode="&#xc5;" horiz-adv-x="1374" 
d="M987 0l-61 207h-477l-62 -207h-397l465 1411q-56 73 -56 166q0 117 81 193q82 77 206 77q129 0 209 -77t80 -193q0 -97 -57 -170l464 -1407h-395zM686 1642q-31 0 -49 -18q-19 -19 -19 -47t19 -47t49 -19q70 0 70 66q0 65 -70 65zM543 522h288l-145 488z" />
    <glyph glyph-name="AE" unicode="&#xc6;" horiz-adv-x="1812" 
d="M1268 344h483v-344h-840v207h-397l-117 -207h-407l819 1434h932v-342h-473v-199h422v-338h-422v-211zM690 522h221v393z" />
    <glyph glyph-name="Ccedilla" unicode="&#xc7;" horiz-adv-x="1472" 
d="M805 328q99 0 181 44q81 44 122 122l317 -185q-77 -128 -199 -212q-123 -84 -274 -113v-78q46 -15 82 -53q37 -38 37 -105q0 -230 -479 -201v224q194 -15 194 28q0 31 -108 41v140q-276 41 -448 246q-173 206 -173 491q0 318 212 533q211 214 536 214q193 0 360 -92
q165 -90 260 -248l-317 -182q-40 76 -122 120t-181 44q-173 0 -278 -108t-105 -281q0 -174 105 -282q104 -107 278 -107z" />
    <glyph glyph-name="Egrave" unicode="&#xc8;" horiz-adv-x="1095" 
d="M764 1546h-324l-237 297h397zM479 344h555v-344h-921v1434h911v-342h-545v-199h494v-338h-494v-211z" />
    <glyph glyph-name="Eacute" unicode="&#xc9;" horiz-adv-x="1095" 
d="M928 1843l-238 -297h-323l163 297h398zM479 344h555v-344h-921v1434h911v-342h-545v-199h494v-338h-494v-211z" />
    <glyph glyph-name="Ecircumflex" unicode="&#xca;" horiz-adv-x="1095" 
d="M561 1640l-82 -114h-307l217 317h342l217 -317h-307zM479 344h555v-344h-921v1434h911v-342h-545v-199h494v-338h-494v-211z" />
    <glyph glyph-name="Edieresis" unicode="&#xcb;" horiz-adv-x="1095" 
d="M371 1505q-68 0 -116 48t-48 116t48 116t116 48q65 0 113 -48t48 -116t-48 -116t-113 -48zM768 1505q-66 0 -114 48t-48 116t48 116t114 48q68 0 116 -48t48 -116t-48 -116t-116 -48zM479 344h555v-344h-921v1434h911v-342h-545v-199h494v-338h-494v-211z" />
    <glyph glyph-name="Igrave" unicode="&#xcc;" horiz-adv-x="591" 
d="M492 1546l-164 297h-398l238 -297h324zM113 1434h366v-1434h-366v1434z" />
    <glyph glyph-name="Iacute" unicode="&#xcd;" horiz-adv-x="591" 
d="M94 1546h324l237 297h-397zM113 1434h366v-1434h-366v1434z" />
    <glyph glyph-name="Icircumflex" unicode="&#xce;" horiz-adv-x="591" 
d="M289 1640l-82 -114h-307l217 317h342l217 -317h-307zM113 0v1434h366v-1434h-366z" />
    <glyph glyph-name="Idieresis" unicode="&#xcf;" horiz-adv-x="591" 
d="M98 1505q-67 0 -115 48q-49 49 -49 116t49 116q48 48 115 48q66 0 114 -48t48 -116t-48 -116t-114 -48zM496 1505q-66 0 -114 48t-48 116t48 116t114 48q67 0 115 -48t48 -116t-48 -116t-115 -48zM113 1434h366v-1434h-366v1434z" />
    <glyph glyph-name="Eth" unicode="&#xd0;" horiz-adv-x="1511" 
d="M760 1434q296 0 496 -206t200 -511t-200 -511t-496 -206h-584v539h-156v323h156v572h584zM760 354q149 0 244 100q94 98 94 263t-94 263q-94 99 -244 99h-207v-217h266v-323h-266v-185h207z" />
    <glyph glyph-name="Ntilde" unicode="&#xd1;" horiz-adv-x="1382" 
d="M299 1532q0 100 24 172t62 107q40 37 90 50q52 14 105 3q52 -10 108 -39q50 -33 75 -29t25 68h246q0 -104 -23 -173q-24 -73 -63 -109t-90 -48q-53 -13 -105 -1q-57 13 -110 40q-49 33 -74 28q-24 -5 -24 -69h-246zM903 1434h365v-1434h-283l-506 721v-721h-366v1434h284
l506 -721v721z" />
    <glyph glyph-name="Ograve" unicode="&#xd2;" horiz-adv-x="1617" 
d="M1004 1567l-164 297h-398l238 -297h324zM809 -31q-316 0 -534 216t-218 532q0 315 218 531t534 216q315 0 533 -216q219 -217 219 -531q0 -315 -219 -532q-218 -216 -533 -216zM809 328q166 0 276 109q111 109 111 280q0 169 -111 279q-112 110 -276 110
q-165 0 -277 -110q-110 -109 -110 -279q0 -171 110 -280t277 -109z" />
    <glyph glyph-name="Oacute" unicode="&#xd3;" horiz-adv-x="1617" 
d="M606 1567h324l237 297h-397zM809 -31q-316 0 -534 216t-218 532q0 315 218 531t534 216q315 0 533 -216q219 -217 219 -531q0 -315 -219 -532q-218 -216 -533 -216zM809 328q166 0 276 109q111 109 111 280q0 169 -111 279q-112 110 -276 110q-165 0 -277 -110
q-110 -109 -110 -279q0 -171 110 -280t277 -109z" />
    <glyph glyph-name="Ocircumflex" unicode="&#xd4;" horiz-adv-x="1617" 
d="M801 1661l-82 -115h-307l217 318h342l217 -318h-307zM809 1464q315 0 533 -216q219 -217 219 -531q0 -315 -219 -532q-218 -216 -533 -216q-316 0 -534 216t-218 532q0 315 218 531t534 216zM809 328q166 0 276 109q111 109 111 280q0 169 -111 279q-112 110 -276 110
q-165 0 -277 -110q-110 -109 -110 -279q0 -171 110 -280t277 -109z" />
    <glyph glyph-name="Otilde" unicode="&#xd5;" horiz-adv-x="1617" 
d="M442 1552q0 100 24 172q24 73 62 108t90 49t105 3q53 -10 108 -39q49 -33 75 -28t26 67h246q0 -101 -24 -173q-24 -73 -62 -108q-40 -37 -91 -49q-53 -13 -105 -1q-57 13 -110 40q-49 33 -73 28q-25 -5 -25 -69h-246zM809 -31q-316 0 -534 216t-218 532q0 315 218 531
t534 216q315 0 533 -216q219 -217 219 -531q0 -315 -219 -532q-218 -216 -533 -216zM809 328q166 0 276 109q111 109 111 280q0 169 -111 279q-112 110 -276 110q-165 0 -277 -110q-110 -109 -110 -279q0 -171 110 -280t277 -109z" />
    <glyph glyph-name="Odieresis" unicode="&#xd6;" horiz-adv-x="1617" 
d="M610 1526q-67 0 -115 48q-49 49 -49 116q0 66 49 115q48 48 115 48q66 0 114 -48t48 -115q0 -68 -48 -116t-114 -48zM1008 1526q-66 0 -114 48t-48 116q0 67 48 115t114 48q67 0 115 -48t48 -115q0 -68 -48 -116t-115 -48zM809 -31q-316 0 -534 216t-218 532
q0 315 218 531t534 216q315 0 533 -216q219 -217 219 -531q0 -315 -219 -532q-218 -216 -533 -216zM809 328q166 0 276 109q111 109 111 280q0 169 -111 279q-112 110 -276 110q-165 0 -277 -110q-110 -109 -110 -279q0 -171 110 -280t277 -109z" />
    <glyph glyph-name="multiply" unicode="&#xd7;" horiz-adv-x="1101" 
d="M1018 954l-238 -237l238 -238l-230 -229l-237 237l-238 -237l-229 229l238 238l-238 237l229 230l238 -238l237 238z" />
    <glyph glyph-name="Oslash" unicode="&#xd8;" horiz-adv-x="1628" 
d="M1360 1239q211 -214 211 -522q0 -316 -218 -532q-217 -216 -534 -216q-217 0 -405 115l-95 -113l-153 88l110 136q-208 214 -208 522q0 315 218 531t533 216q223 0 406 -114l92 112l153 -88zM432 717q0 -139 76 -240l485 592q-83 37 -174 37q-164 0 -276 -110
q-111 -110 -111 -279zM819 328q167 0 277 109t110 280q0 136 -78 241l-485 -591q84 -39 176 -39z" />
    <glyph glyph-name="Ugrave" unicode="&#xd9;" horiz-adv-x="1331" 
d="M860 1546l-164 297h-397l238 -297h323zM666 -31q-249 0 -409 137q-159 136 -159 365v963h367v-928q0 -180 201 -180q200 0 200 180v928h367v-963q0 -229 -159 -365q-160 -137 -408 -137z" />
    <glyph glyph-name="Uacute" unicode="&#xda;" horiz-adv-x="1331" 
d="M463 1546h323l238 297h-397zM666 -31q-249 0 -409 137q-159 136 -159 365v963h367v-928q0 -180 201 -180q200 0 200 180v928h367v-963q0 -229 -159 -365q-160 -137 -408 -137z" />
    <glyph glyph-name="Ucircumflex" unicode="&#xdb;" horiz-adv-x="1331" 
d="M657 1640l-82 -114h-307l217 317h342l217 -317h-307zM866 1434h367v-963q0 -229 -159 -365q-160 -137 -408 -137q-249 0 -409 137q-159 136 -159 365v963h367v-928q0 -180 201 -180q200 0 200 180v928z" />
    <glyph glyph-name="Udieresis" unicode="&#xdc;" horiz-adv-x="1331" 
d="M467 1505q-68 0 -116 48t-48 116t48 116t116 48q66 0 114 -48t48 -116t-48 -116t-114 -48zM864 1505q-65 0 -113 48q-49 49 -49 116t49 116q48 48 113 48q68 0 116 -48t48 -116t-48 -116t-116 -48zM666 -31q-249 0 -409 137q-159 136 -159 365v963h367v-928
q0 -180 201 -180q200 0 200 180v928h367v-963q0 -229 -159 -365q-160 -137 -408 -137z" />
    <glyph glyph-name="Yacute" unicode="&#xdd;" horiz-adv-x="1333" 
d="M1024 1843l-238 -297h-323l164 297h397zM1333 1434l-483 -883v-551h-367v547l-483 887h412l254 -531l256 531h411z" />
    <glyph glyph-name="Thorn" unicode="&#xde;" horiz-adv-x="1212" 
d="M676 1221q211 0 359 -143q147 -142 147 -361q0 -217 -147 -360q-146 -142 -359 -142h-197v-215h-366v1434h366v-213h197zM676 565q58 0 98 43q41 44 41 109t-41 109t-98 44h-197v-305h197z" />
    <glyph glyph-name="germandbls" unicode="&#xdf;" horiz-adv-x="1128" 
d="M561 -10v303q205 -27 205 92q0 63 -100 209q-101 148 -101 205q0 48 46 125t46 133q0 47 -26 76q-27 30 -76 30q-53 0 -85 -36q-32 -37 -32 -99v-1028h-340v1018q0 207 128 327q126 119 343 119q204 0 321 -104q118 -105 118 -248q0 -67 -25 -125q-21 -49 -49 -96
q-25 -42 -25 -76q0 -46 49 -122q53 -81 100 -179q50 -103 50 -211q0 -173 -126 -261q-127 -89 -421 -52z" />
    <glyph glyph-name="agrave" unicode="&#xe0;" horiz-adv-x="1259" 
d="M823 1137h-323l-238 297h397zM821 1024h340v-1024h-340v94q-105 -123 -291 -123q-205 0 -343 155q-138 154 -138 386t138 386q138 155 343 155q186 0 291 -123v94zM606 289q96 0 156 61q59 60 59 162t-59 162q-60 61 -156 61q-95 0 -155 -61q-60 -62 -60 -162t60 -162
q60 -61 155 -61z" />
    <glyph glyph-name="aacute" unicode="&#xe1;" horiz-adv-x="1259" 
d="M987 1434l-237 -297h-324l164 297h397zM821 1024h340v-1024h-340v94q-105 -123 -291 -123q-205 0 -343 155q-138 154 -138 386t138 386q138 155 343 155q186 0 291 -123v94zM606 289q96 0 156 61q59 60 59 162t-59 162q-60 61 -156 61q-95 0 -155 -61q-60 -62 -60 -162
t60 -162q60 -61 155 -61z" />
    <glyph glyph-name="acircumflex" unicode="&#xe2;" horiz-adv-x="1259" 
d="M621 1231l-82 -115h-308l218 318h342l217 -318h-308zM821 1024h340v-1024h-340v94q-105 -123 -291 -123q-205 0 -343 155q-138 154 -138 386t138 386q138 155 343 155q186 0 291 -123v94zM606 289q96 0 156 61q59 60 59 162t-59 162q-60 61 -156 61q-95 0 -155 -61
q-60 -62 -60 -162t60 -162q60 -61 155 -61z" />
    <glyph glyph-name="atilde" unicode="&#xe3;" horiz-adv-x="1259" 
d="M606 1163q-49 33 -74 28q-24 -5 -24 -69h-246q0 100 24 172q24 73 62 108t90 49t105 3q53 -10 108 -39q50 -33 75 -29q26 5 26 68h245q0 -104 -23 -173q-24 -73 -63 -109t-90 -48q-53 -13 -105 -1q-57 13 -110 40zM821 1024h340v-1024h-340v94q-105 -123 -291 -123
q-205 0 -343 155q-138 154 -138 386t138 386q138 155 343 155q186 0 291 -123v94zM606 289q96 0 156 61q59 60 59 162t-59 162q-60 61 -156 61q-95 0 -155 -61q-60 -62 -60 -162t60 -162q60 -61 155 -61z" />
    <glyph glyph-name="adieresis" unicode="&#xe4;" horiz-adv-x="1259" 
d="M430 1096q-68 0 -116 48t-48 116q0 67 48 115t116 48q66 0 114 -48t48 -115q0 -68 -48 -116t-114 -48zM827 1096q-65 0 -113 48t-48 116q0 67 48 115t113 48q68 0 116 -48t48 -115q0 -68 -48 -116t-116 -48zM821 1024h340v-1024h-340v94q-105 -123 -291 -123
q-205 0 -343 155q-138 154 -138 386t138 386q138 155 343 155q186 0 291 -123v94zM606 289q96 0 156 61q59 60 59 162t-59 162q-60 61 -156 61q-95 0 -155 -61q-60 -62 -60 -162t60 -162q60 -61 155 -61z" />
    <glyph glyph-name="aring" unicode="&#xe5;" horiz-adv-x="1259" 
d="M629 1092q-126 0 -206 76q-81 76 -81 194q0 116 81 193q82 77 206 77q129 0 209 -77t80 -193q0 -118 -80 -195q-78 -75 -209 -75zM629 1427q-31 0 -49 -18q-19 -19 -19 -47t19 -47t49 -19q69 0 69 66q0 65 -69 65zM821 1024h340v-1024h-340v94q-105 -123 -291 -123
q-205 0 -343 155q-138 154 -138 386t138 386q138 155 343 155q186 0 291 -123v94zM606 289q96 0 156 61q59 60 59 162t-59 162q-60 61 -156 61q-95 0 -155 -61q-60 -62 -60 -162t60 -162q60 -61 155 -61z" />
    <glyph glyph-name="ae" unicode="&#xe6;" horiz-adv-x="1941" 
d="M1176 387q57 -135 231 -135q120 0 192 78l242 -164q-150 -195 -393 -195q-195 0 -318 129v-100h-309v84q-102 -113 -282 -113q-205 0 -348 156q-142 155 -142 385t142 385q143 156 348 156q180 0 282 -113v84h309v-94q117 123 300 123q206 0 335 -153t129 -386
q0 -71 -14 -127h-704zM1169 625h396q-41 141 -193 141q-156 0 -203 -141zM606 293q96 0 156 60q59 59 59 159t-59 159q-60 60 -156 60q-95 0 -155 -60t-60 -159t60 -159t155 -60z" />
    <glyph glyph-name="ccedilla" unicode="&#xe7;" horiz-adv-x="1081" 
d="M592 303q126 0 178 103l291 -168q-102 -189 -318 -246v-86q46 -15 82 -53q37 -38 37 -105q0 -230 -479 -201v224q195 -15 195 28q0 30 -109 41v144q-186 41 -303 187q-117 147 -117 341q0 229 156 385t389 156q150 0 275 -72t192 -193l-291 -167q-55 100 -178 100
q-86 0 -143 -58q-58 -60 -58 -151t58 -151q57 -58 143 -58z" />
    <glyph glyph-name="egrave" unicode="&#xe8;" horiz-adv-x="1169" 
d="M788 1151h-323l-238 297h398zM401 387q51 -125 230 -125q109 0 186 72l246 -172q-152 -191 -440 -191q-261 0 -417 153q-157 154 -157 386q0 230 154 387q153 156 391 156q228 0 379 -154q149 -152 149 -385q0 -71 -14 -127h-707zM397 623h394q-40 143 -193 143
q-158 0 -201 -143z" />
    <glyph glyph-name="eacute" unicode="&#xe9;" horiz-adv-x="1169" 
d="M952 1448l-237 -297h-324l164 297h397zM401 387q51 -125 230 -125q109 0 186 72l246 -172q-152 -191 -440 -191q-261 0 -417 153q-157 154 -157 386q0 230 154 387q153 156 391 156q228 0 379 -154q149 -152 149 -385q0 -71 -14 -127h-707zM397 623h394q-40 143 -193 143
q-158 0 -201 -143z" />
    <glyph glyph-name="ecircumflex" unicode="&#xea;" horiz-adv-x="1169" 
d="M586 1245l-82 -115h-307l217 318h342l217 -318h-307zM401 387q51 -125 230 -125q109 0 186 72l246 -172q-152 -191 -440 -191q-261 0 -417 153q-157 154 -157 386q0 230 154 387q153 156 391 156q228 0 379 -154q149 -152 149 -385q0 -71 -14 -127h-707zM397 623h394
q-40 143 -193 143q-158 0 -201 -143z" />
    <glyph glyph-name="edieresis" unicode="&#xeb;" horiz-adv-x="1169" 
d="M395 1110q-67 0 -115 48q-49 49 -49 116t49 116q48 48 115 48q66 0 114 -48t48 -116t-48 -116t-114 -48zM793 1110q-66 0 -114 48t-48 116t48 116t114 48q67 0 115 -48t48 -116t-48 -116t-115 -48zM401 387q51 -125 230 -125q109 0 186 72l246 -172q-152 -191 -440 -191
q-261 0 -417 153q-157 154 -157 386q0 230 154 387q153 156 391 156q228 0 379 -154q149 -152 149 -385q0 -71 -14 -127h-707zM397 623h394q-40 143 -193 143q-158 0 -201 -143z" />
    <glyph glyph-name="igrave" unicode="&#xec;" horiz-adv-x="536" 
d="M428 1126l-82 308h-385l143 -308h324zM438 0h-340v1024h340v-1024z" />
    <glyph glyph-name="iacute" unicode="&#xed;" horiz-adv-x="536" 
d="M98 1126h324l145 308h-387zM98 0v1024h340v-1024h-340z" />
    <glyph glyph-name="icircumflex" unicode="&#xee;" horiz-adv-x="536" 
d="M268 1217l-61 -101h-297l188 318h340l189 -318h-297zM98 0v1024h340v-1024h-340z" />
    <glyph glyph-name="idieresis" unicode="&#xef;" horiz-adv-x="536" 
d="M84 1112q-65 0 -111 46q-47 47 -47 112q0 64 47 111q46 46 111 46t111 -46q47 -47 47 -111q0 -65 -47 -112q-46 -46 -111 -46zM453 1112q-65 0 -111 46q-47 47 -47 112q0 64 47 111q46 46 111 46q64 0 110 -46q47 -47 47 -111q0 -65 -47 -112q-46 -46 -110 -46zM98 0
v1024h340v-1024h-340z" />
    <glyph glyph-name="eth" unicode="&#xf0;" horiz-adv-x="1155" 
d="M1012 758q94 -128 94 -287q0 -225 -156 -362q-158 -138 -372 -138q-221 0 -375 137t-154 363q0 178 122 312q123 135 302 153l-78 108l-260 -102v242l125 49l-143 201h391l59 -80l267 104v-244l-125 -49zM578 283q84 0 135 48t51 136q0 61 -33 106q-53 70 -153 70
q-84 0 -136 -47q-51 -46 -51 -129q0 -88 51 -136t136 -48z" />
    <glyph glyph-name="ntilde" unicode="&#xf1;" horiz-adv-x="1185" 
d="M588 1184q-48 32 -74 27q-25 -5 -25 -68h-245q0 103 23 172q24 71 63 107q38 35 90 49q53 14 104 4q54 -11 109 -39q50 -33 75 -29t25 68h246q0 -101 -24 -173q-25 -75 -62 -109q-39 -36 -90 -48q-54 -13 -106 -1q-55 12 -109 40zM723 1053q166 0 271 -114
q106 -115 106 -327v-612h-340v569q0 81 -42 121q-43 41 -112 41q-80 0 -124 -48q-44 -49 -44 -138v-545h-340v1024h340v-102q92 131 285 131z" />
    <glyph glyph-name="ograve" unicode="&#xf2;" horiz-adv-x="1193" 
d="M791 1157l-164 297h-398l238 -297h324zM596 -29q-227 0 -387 157t-160 384t160 384t387 157q228 0 388 -157q159 -156 159 -384t-159 -384q-160 -157 -388 -157zM596 299q90 0 148 59q59 61 59 154t-59 154q-58 59 -148 59q-88 0 -146 -59q-59 -61 -59 -154t59 -154
q58 -59 146 -59z" />
    <glyph glyph-name="oacute" unicode="&#xf3;" horiz-adv-x="1193" 
d="M393 1157h324l237 297h-397zM596 -29q-227 0 -387 157t-160 384t160 384t387 157q228 0 388 -157q159 -156 159 -384t-159 -384q-160 -157 -388 -157zM596 299q90 0 148 59q59 61 59 154t-59 154q-58 59 -148 59q-88 0 -146 -59q-59 -61 -59 -154t59 -154q58 -59 146 -59
z" />
    <glyph glyph-name="ocircumflex" unicode="&#xf4;" horiz-adv-x="1193" 
d="M588 1251l-82 -114h-307l217 317h342l217 -317h-307zM596 1053q228 0 388 -157q159 -156 159 -384t-159 -384q-160 -157 -388 -157q-227 0 -387 157t-160 384t160 384t387 157zM596 299q90 0 148 59q59 61 59 154t-59 154q-58 59 -148 59q-88 0 -146 -59
q-59 -61 -59 -154t59 -154q58 -59 146 -59z" />
    <glyph glyph-name="otilde" unicode="&#xf5;" horiz-adv-x="1193" 
d="M229 1143q0 100 24 172t62 107t91 49t104 4q52 -11 108 -39q50 -33 75 -29q26 5 26 68h246q0 -101 -24 -173q-25 -75 -62 -109q-39 -36 -91 -48q-53 -13 -105 -1q-57 13 -110 40q-48 32 -73 27t-25 -68h-246zM596 -29q-227 0 -387 157t-160 384t160 384t387 157
q228 0 388 -157q159 -156 159 -384t-159 -384q-160 -157 -388 -157zM596 299q90 0 148 59q59 61 59 154t-59 154q-58 59 -148 59q-88 0 -146 -59q-59 -61 -59 -154t59 -154q58 -59 146 -59z" />
    <glyph glyph-name="odieresis" unicode="&#xf6;" horiz-adv-x="1193" 
d="M397 1116q-67 0 -115 48q-49 49 -49 116t49 116q48 48 115 48q66 0 114 -48t48 -116t-48 -116t-114 -48zM795 1116q-66 0 -114 48t-48 116t48 116t114 48q67 0 115 -48t48 -116t-48 -116t-115 -48zM596 -29q-227 0 -387 157t-160 384t160 384t387 157q228 0 388 -157
q159 -156 159 -384t-159 -384q-160 -157 -388 -157zM596 299q90 0 148 59q59 61 59 154t-59 154q-58 59 -148 59q-88 0 -146 -59q-59 -61 -59 -154t59 -154q58 -59 146 -59z" />
    <glyph glyph-name="divide" unicode="&#xf7;" horiz-adv-x="1128" 
d="M563 940q-82 0 -137 56t-55 139q0 82 55 138t137 56q84 0 139 -56q56 -58 56 -138q0 -81 -56 -139q-55 -56 -139 -56zM72 555v324h983v-324h-983zM563 104q-81 0 -137 57q-55 56 -55 138t55 138q56 57 137 57q83 0 139 -57q56 -58 56 -138t-56 -138q-56 -57 -139 -57z
" />
    <glyph glyph-name="oslash" unicode="&#xf8;" horiz-adv-x="1193" 
d="M995 885q148 -154 148 -373q0 -228 -159 -384q-160 -157 -388 -157q-156 0 -287 80l-61 -76l-125 70l76 92q-150 156 -150 375q0 227 160 384t387 157q158 0 289 -80l61 76l125 -72zM391 512q0 -61 25 -109l254 310q-35 12 -74 12q-88 0 -146 -59q-59 -61 -59 -154z
M596 299q90 0 148 59q59 61 59 154q0 61 -25 109l-254 -310q33 -12 72 -12z" />
    <glyph glyph-name="ugrave" unicode="&#xf9;" horiz-adv-x="1185" 
d="M782 1137h-323l-238 297h397zM748 1024h339v-1024h-339v102q-92 -131 -285 -131q-167 0 -272 114t-105 327v612h340v-569q0 -81 42 -121q43 -41 112 -41q80 0 123 48q45 50 45 138v545z" />
    <glyph glyph-name="uacute" unicode="&#xfa;" horiz-adv-x="1185" 
d="M946 1434l-237 -297h-324l164 297h397zM748 1024h339v-1024h-339v102q-92 -131 -285 -131q-167 0 -272 114t-105 327v612h340v-569q0 -81 42 -121q43 -41 112 -41q80 0 123 48q45 50 45 138v545z" />
    <glyph glyph-name="ucircumflex" unicode="&#xfb;" horiz-adv-x="1185" 
d="M580 1231l-82 -115h-308l218 318h342l217 -318h-308zM748 1024h339v-1024h-339v102q-92 -131 -285 -131q-167 0 -272 114t-105 327v612h340v-569q0 -81 42 -121q43 -41 112 -41q80 0 123 48q45 50 45 138v545z" />
    <glyph glyph-name="udieresis" unicode="&#xfc;" horiz-adv-x="1185" 
d="M389 1096q-68 0 -116 48t-48 116q0 67 48 115t116 48q66 0 114 -48t48 -115q0 -68 -48 -116t-114 -48zM786 1096q-65 0 -113 48t-48 116q0 67 48 115t113 48q68 0 116 -48t48 -115q0 -68 -48 -116t-116 -48zM748 1024h339v-1024h-339v102q-92 -131 -285 -131
q-167 0 -272 114t-105 327v612h340v-569q0 -81 42 -121q43 -41 112 -41q80 0 123 48q45 50 45 138v545z" />
    <glyph glyph-name="yacute" unicode="&#xfd;" horiz-adv-x="1124" 
d="M928 1434l-238 -297h-323l163 297h398zM748 1024h376l-350 -1008q-83 -232 -231 -333q-152 -103 -387 -93v320q108 0 163 27q57 28 91 96l-410 991h381l207 -594z" />
    <glyph glyph-name="thorn" unicode="&#xfe;" horiz-adv-x="1259" 
d="M729 1053q205 0 343 -155q138 -154 138 -386t-138 -386q-138 -155 -343 -155q-186 0 -291 123v-504h-340v1844h340v-504q105 123 291 123zM653 289q96 0 156 61q59 60 59 162t-59 162q-60 61 -156 61q-95 0 -155 -61q-60 -62 -60 -162t60 -162q60 -61 155 -61z" />
    <glyph glyph-name="ydieresis" unicode="&#xff;" horiz-adv-x="1124" 
d="M371 1096q-68 0 -116 48t-48 116q0 67 48 115t116 48q65 0 113 -48t48 -115q0 -68 -48 -116t-113 -48zM768 1096q-66 0 -114 48t-48 116q0 67 48 115t114 48q68 0 116 -48t48 -115q0 -68 -48 -116t-116 -48zM748 1024h376l-350 -1008q-83 -232 -231 -333
q-152 -103 -387 -93v320q108 0 163 27q57 28 91 96l-410 991h381l207 -594z" />
    <glyph glyph-name="Amacron" unicode="&#x100;" horiz-adv-x="1374" 
d="M1001 1810v-266h-632v266h632zM987 0l-61 207h-477l-62 -207h-397l473 1434h446l473 -1434h-395zM543 522h288l-145 488z" />
    <glyph glyph-name="amacron" unicode="&#x101;" horiz-adv-x="1259" 
d="M944 1401v-266h-633v266h633zM821 1024h340v-1024h-340v94q-105 -123 -291 -123q-205 0 -343 155q-138 154 -138 386t138 386q138 155 343 155q186 0 291 -123v94zM606 289q96 0 156 61q59 60 59 162t-59 162q-60 61 -156 61q-95 0 -155 -61q-60 -62 -60 -162t60 -162
q60 -61 155 -61z" />
    <glyph glyph-name="Abreve" unicode="&#x102;" horiz-adv-x="1374" 
d="M686 1509q-178 0 -272 84q-95 84 -95 244h287q0 -90 80 -90q82 0 82 90h287q0 -159 -96 -244q-95 -84 -273 -84zM987 0l-61 207h-477l-62 -207h-397l473 1434h446l473 -1434h-395zM543 522h288l-145 488z" />
    <glyph glyph-name="abreve" unicode="&#x103;" horiz-adv-x="1259" 
d="M629 1100q-179 0 -273 84t-94 243h287q0 -90 80 -90q82 0 82 90h286q0 -159 -95 -243q-94 -84 -273 -84zM821 1024h340v-1024h-340v94q-105 -123 -291 -123q-205 0 -343 155q-138 154 -138 386t138 386q138 155 343 155q186 0 291 -123v94zM606 289q96 0 156 61
q59 60 59 162t-59 162q-60 61 -156 61q-95 0 -155 -61q-60 -62 -60 -162t60 -162q60 -61 155 -61z" />
    <glyph glyph-name="Aogonek" unicode="&#x104;" horiz-adv-x="1374" 
d="M1339 -207q15 -1 43 6v-202q-87 -35 -180 -35q-92 0 -153 47q-60 47 -60 139q0 121 125 252h-127l-61 207h-477l-62 -207h-397l473 1434h446l473 -1434q-86 -95 -86 -160q-5 -47 43 -47zM543 522h288l-145 488z" />
    <glyph glyph-name="aogonek" unicode="&#x105;" horiz-adv-x="1259" 
d="M1161 1024v-1024q-88 -98 -88 -160q0 -47 45 -47q10 -1 43 6v-202q-87 -35 -180 -35q-94 0 -155 47q-60 47 -60 139q0 119 127 252h-72v94q-105 -123 -291 -123q-205 0 -343 155q-138 154 -138 386t138 386q138 155 343 155q186 0 291 -123v94h340zM606 289q96 0 156 61
q59 60 59 162t-59 162q-60 61 -156 61q-95 0 -155 -61q-60 -62 -60 -162t60 -162q60 -61 155 -61z" />
    <glyph glyph-name="Cacute" unicode="&#x106;" horiz-adv-x="1472" 
d="M602 1567h324l237 297h-397zM805 -31q-325 0 -536 214q-212 215 -212 534q0 318 212 533q211 214 536 214q193 0 360 -92q165 -90 260 -248l-317 -182q-40 76 -122 120t-181 44q-173 0 -278 -108t-105 -281q0 -174 105 -282q104 -107 278 -107q99 0 181 44q81 44 122 122
l317 -185q-95 -158 -259 -249t-361 -91z" />
    <glyph glyph-name="cacute" unicode="&#x107;" horiz-adv-x="1081" 
d="M393 1147h324l237 297h-397zM594 -29q-233 0 -389 156t-156 385t156 385t389 156q150 0 275 -72t192 -193l-291 -167q-55 100 -178 100q-86 0 -143 -58q-58 -60 -58 -151t58 -151q57 -58 143 -58q126 0 178 103l291 -168q-67 -123 -192 -195t-275 -72z" />
    <glyph glyph-name="Cdotaccent" unicode="&#x10a;" horiz-adv-x="1472" 
d="M805 1542q-76 0 -130 54t-54 128q0 76 54 130q55 55 130 55q73 0 128 -55q54 -54 54 -130q0 -74 -54 -128t-128 -54zM805 -31q-325 0 -536 214q-212 215 -212 534q0 318 212 533q211 214 536 214q193 0 360 -92q165 -90 260 -248l-317 -182q-40 76 -122 120t-181 44
q-173 0 -278 -108t-105 -281q0 -174 105 -282q104 -107 278 -107q99 0 181 44q81 44 122 122l317 -185q-95 -158 -259 -249t-361 -91z" />
    <glyph glyph-name="cdotaccent" unicode="&#x10b;" horiz-adv-x="1081" 
d="M596 1122q-75 0 -130 55q-54 54 -54 128q0 76 54 130t130 54q74 0 128 -54t54 -130q0 -74 -54 -128q-55 -55 -128 -55zM594 -29q-233 0 -389 156t-156 385t156 385t389 156q150 0 275 -72t192 -193l-291 -167q-55 100 -178 100q-86 0 -143 -58q-58 -60 -58 -151t58 -151
q57 -58 143 -58q126 0 178 103l291 -168q-67 -123 -192 -195t-275 -72z" />
    <glyph glyph-name="Ccaron" unicode="&#x10c;" horiz-adv-x="1472" 
d="M625 1546l-217 318h307l82 -115l80 115h307l-217 -318h-342zM805 328q99 0 181 44q81 44 122 122l317 -185q-95 -158 -259 -249t-361 -91q-325 0 -536 214q-212 215 -212 534q0 318 212 533q211 214 536 214q193 0 360 -92q165 -90 260 -248l-317 -182q-40 76 -122 120
t-181 44q-173 0 -278 -108t-105 -281q0 -174 105 -282q104 -107 278 -107z" />
    <glyph glyph-name="ccaron" unicode="&#x10d;" horiz-adv-x="1081" 
d="M416 1126l-217 318h307l82 -115l80 115h307l-217 -318h-342zM592 303q127 0 178 102l291 -167q-67 -123 -192 -195t-275 -72q-233 0 -389 156t-156 385t156 385t389 156q150 0 275 -72t192 -193l-291 -167q-55 100 -178 100q-86 0 -143 -58q-58 -60 -58 -151t58 -151
q57 -58 143 -58z" />
    <glyph glyph-name="Dcaron" unicode="&#x10e;" horiz-adv-x="1449" 
d="M496 1526l-217 317h307l82 -114l80 114h307l-217 -317h-342zM696 1434q297 0 497 -206t200 -511t-200 -511t-497 -206h-583v1434h583zM696 354q149 0 244 100q94 98 94 263t-94 263q-94 99 -244 99h-207v-725h207z" />
    <glyph glyph-name="dcaron" unicode="&#x10f;" horiz-adv-x="1546" 
d="M821 930v504h340v-1434h-340v94q-105 -123 -291 -123q-205 0 -343 155q-138 154 -138 386t138 386q138 155 343 155q186 0 291 -123zM1262 1434h315l-72 -449h-264zM606 289q96 0 156 61q59 60 59 162t-59 162q-60 61 -156 61q-95 0 -155 -61q-60 -62 -60 -162t60 -162
q60 -61 155 -61z" />
    <glyph glyph-name="Dcroat" unicode="&#x110;" horiz-adv-x="1511" 
d="M760 1434q296 0 496 -206t200 -511t-200 -511t-496 -206h-584v539h-156v323h156v572h584zM760 354q149 0 244 100q94 98 94 263t-94 263q-94 99 -244 99h-207v-217h266v-323h-266v-185h207z" />
    <glyph glyph-name="dcroat" unicode="&#x111;" horiz-adv-x="1280" 
d="M1280 1315v-215h-119v-1100h-340v84q-102 -113 -282 -113q-205 0 -348 154q-142 152 -142 377q0 224 142 378t348 154q180 0 282 -112v178h-278v215h278v119h340v-119h119zM606 285q95 0 155 60t60 157q0 96 -60 157q-60 62 -155 62q-94 0 -154 -62q-61 -63 -61 -157
q0 -96 61 -157q60 -60 154 -60z" />
    <glyph glyph-name="Emacron" unicode="&#x112;" horiz-adv-x="1095" 
d="M885 1810v-266h-633v266h633zM479 344h555v-344h-921v1434h911v-342h-545v-199h494v-338h-494v-211z" />
    <glyph glyph-name="emacron" unicode="&#x113;" horiz-adv-x="1169" 
d="M909 1415v-266h-633v266h633zM401 387q51 -125 230 -125q109 0 186 72l246 -172q-152 -191 -440 -191q-261 0 -417 153q-157 154 -157 386q0 230 154 387q153 156 391 156q228 0 379 -154q149 -152 149 -385q0 -71 -14 -127h-707zM397 623h394q-40 143 -193 143
q-158 0 -201 -143z" />
    <glyph glyph-name="Edotaccent" unicode="&#x116;" horiz-adv-x="1095" 
d="M569 1522q-76 0 -130 54t-54 128q0 76 54 130t130 54q74 0 128 -54q55 -55 55 -130q0 -73 -55 -128q-54 -54 -128 -54zM479 344h555v-344h-921v1434h911v-342h-545v-199h494v-338h-494v-211z" />
    <glyph glyph-name="edotaccent" unicode="&#x117;" horiz-adv-x="1169" 
d="M594 1126q-75 0 -130 55q-54 54 -54 128q0 76 54 130t130 54q74 0 128 -54t54 -130q0 -74 -54 -128q-55 -55 -128 -55zM401 387q51 -125 230 -125q109 0 186 72l246 -172q-152 -191 -440 -191q-261 0 -417 153q-157 154 -157 386q0 230 154 387q153 156 391 156
q228 0 379 -154q149 -152 149 -385q0 -71 -14 -127h-707zM397 623h394q-40 143 -193 143q-158 0 -201 -143z" />
    <glyph glyph-name="Eogonek" unicode="&#x118;" horiz-adv-x="1095" 
d="M1034 0q-88 -94 -88 -160q-5 -47 45 -47q10 -1 43 6v-202q-87 -35 -180 -35q-94 0 -155 47q-60 47 -60 139q0 119 127 252h-653v1434h911v-342h-545v-199h494v-338h-494v-211h555v-344z" />
    <glyph glyph-name="eogonek" unicode="&#x119;" horiz-adv-x="1169" 
d="M401 387q51 -125 230 -125q109 0 186 72l246 -172q-33 -42 -66 -68q-143 -177 -143 -254q0 -47 45 -47q10 -1 43 6v-202q-87 -35 -180 -35q-94 0 -155 47q-60 47 -60 139q0 115 143 225q-30 -2 -67 -2q-261 0 -417 153q-157 154 -157 386q0 230 154 387q153 156 391 156
q228 0 379 -154q149 -152 149 -385q0 -71 -14 -127h-707zM397 623h394q-40 143 -193 143q-158 0 -201 -143z" />
    <glyph glyph-name="Ecaron" unicode="&#x11a;" horiz-adv-x="1095" 
d="M389 1526l-217 317h307l82 -114l80 114h307l-217 -317h-342zM479 344h555v-344h-921v1434h911v-342h-545v-199h494v-338h-494v-211z" />
    <glyph glyph-name="ecaron" unicode="&#x11b;" horiz-adv-x="1169" 
d="M414 1130l-217 318h307l82 -115l80 115h307l-217 -318h-342zM401 387q51 -125 230 -125q109 0 186 72l246 -172q-152 -191 -440 -191q-261 0 -417 153q-157 154 -157 386q0 230 154 387q153 156 391 156q228 0 379 -154q149 -152 149 -385q0 -71 -14 -127h-707zM397 623
h394q-40 143 -193 143q-158 0 -201 -143z" />
    <glyph glyph-name="Gbreve" unicode="&#x11e;" horiz-adv-x="1593" 
d="M809 1530q-177 0 -272 84t-95 244h287q0 -91 80 -91q82 0 82 91h287q0 -159 -96 -244q-94 -84 -273 -84zM1536 821v-145q0 -316 -198 -511q-199 -196 -513 -196q-335 0 -552 215q-216 214 -216 531q0 314 215 532q214 217 533 217q201 0 367 -90q169 -91 262 -239
l-312 -179q-44 69 -126 109q-84 41 -187 41q-171 0 -279 -111t-108 -282q0 -168 107 -281q109 -115 302 -115q251 0 330 189h-348v315h723z" />
    <glyph glyph-name="gbreve" unicode="&#x11f;" horiz-adv-x="1265" 
d="M614 1120q-176 0 -271 84t-95 244h287q0 -90 79 -90q82 0 82 90h287q0 -160 -95 -244q-94 -84 -274 -84zM831 1024h336v-983q0 -125 -46 -218q-47 -96 -124 -152q-78 -57 -171 -84t-197 -27q-169 0 -303 63q-133 63 -201 187l283 163q73 -116 217 -116q91 0 149 47
q57 46 57 137v98q-105 -127 -286 -127q-211 0 -349 152q-139 153 -139 368q0 216 139 369q138 152 349 152q181 0 286 -127v98zM614 319q96 0 157 61q60 60 60 152q0 93 -60 153t-157 60q-96 0 -156 -60q-61 -61 -61 -153q0 -91 61 -152t156 -61z" />
    <glyph glyph-name="Gdotaccent" unicode="&#x120;" horiz-adv-x="1593" 
d="M809 1542q-76 0 -130 54t-54 128q0 76 54 130q55 55 130 55q73 0 128 -55q54 -54 54 -130q0 -74 -54 -128t-128 -54zM1536 821v-145q0 -316 -198 -511q-199 -196 -513 -196q-335 0 -552 215q-216 214 -216 531q0 314 215 532q214 217 533 217q201 0 367 -90
q169 -91 262 -239l-312 -179q-44 69 -126 109q-84 41 -187 41q-171 0 -279 -111t-108 -282q0 -168 107 -281q109 -115 302 -115q251 0 330 189h-348v315h723z" />
    <glyph glyph-name="gdotaccent" unicode="&#x121;" horiz-adv-x="1265" 
d="M614 1133q-76 0 -130 54t-54 128q0 76 54 130t130 54q74 0 128 -54q55 -55 55 -130q0 -73 -55 -128q-54 -54 -128 -54zM831 1024h336v-983q0 -125 -46 -218q-47 -96 -124 -152q-78 -57 -171 -84t-197 -27q-169 0 -303 63q-133 63 -201 187l283 163q73 -116 217 -116
q91 0 149 47q57 46 57 137v98q-105 -127 -286 -127q-211 0 -349 152q-139 153 -139 368q0 216 139 369q138 152 349 152q181 0 286 -127v98zM614 319q96 0 157 61q60 60 60 152q0 93 -60 153t-157 60q-96 0 -156 -60q-61 -61 -61 -153q0 -91 61 -152t156 -61z" />
    <glyph glyph-name="Gcommaaccent" unicode="&#x122;" horiz-adv-x="1593" 
d="M1536 821v-145q0 -316 -198 -511q-199 -196 -513 -196q-335 0 -552 215q-216 214 -216 531q0 314 215 532q214 217 533 217q201 0 367 -90q169 -91 262 -239l-312 -179q-44 69 -126 109q-84 41 -187 41q-171 0 -279 -111t-108 -282q0 -168 107 -281q109 -115 302 -115
q251 0 330 189h-348v315h723zM653 -567l21 450h315l-71 -450h-265z" />
    <glyph glyph-name="gcommaaccent" unicode="&#x123;" horiz-adv-x="1265" 
d="M768 1628l-20 -450h-316l72 450h264zM831 1024h336v-983q0 -125 -46 -218q-47 -96 -124 -152q-78 -57 -171 -84t-197 -27q-169 0 -303 63q-133 63 -201 187l283 163q73 -116 217 -116q91 0 149 47q57 46 57 137v98q-105 -127 -286 -127q-211 0 -349 152
q-139 153 -139 368q0 216 139 369q138 152 349 152q181 0 286 -127v98zM614 319q96 0 157 61q60 60 60 152q0 93 -60 153t-157 60q-96 0 -156 -60q-61 -61 -61 -153q0 -91 61 -152t156 -61z" />
    <glyph glyph-name="Hbar" unicode="&#x126;" horiz-adv-x="1443" 
d="M1411 1245v-266h-123v-979h-364v451h-404v-451h-366v979h-123v266h123v189h366v-189h404v189h364v-189h123zM924 805v174h-404v-174h404z" />
    <glyph glyph-name="hbar" unicode="&#x127;" 
d="M743 1028q165 0 271 -114q106 -113 106 -326v-588h-340v545q0 80 -43 122q-44 42 -112 42q-78 0 -122 -49t-44 -140v-520h-340v1100h-119v215h119v119h340v-119h276v-215h-276v-201q90 129 284 129z" />
    <glyph glyph-name="Imacron" unicode="&#x12a;" horiz-adv-x="591" 
d="M-20 1544v266h632v-266h-632zM113 1434h366v-1434h-366v1434z" />
    <glyph glyph-name="imacron" unicode="&#x12b;" horiz-adv-x="536" 
d="M4 1135v276h531v-276h-531zM98 0v1024h340v-1024h-340z" />
    <glyph glyph-name="Iogonek" unicode="&#x12e;" horiz-adv-x="591" 
d="M453 -207q10 -1 43 6v-202q-87 -35 -181 -35q-93 0 -154 47t-61 139q0 122 111 252h-98v1434h366v-1434q-71 -90 -71 -160q0 -47 45 -47z" />
    <glyph glyph-name="iogonek" unicode="&#x12f;" horiz-adv-x="536" 
d="M268 1108q-80 0 -138 58t-58 139q0 80 58 137t138 57t139 -57q58 -57 58 -137q0 -81 -58 -139t-139 -58zM418 -207q10 -1 43 6v-202q-87 -35 -180 -35q-94 0 -155 47q-60 47 -60 139q0 123 90 252h-58v1024h340v-1024q-65 -93 -65 -160q0 -47 45 -47z" />
    <glyph glyph-name="Idotaccent" unicode="&#x130;" horiz-adv-x="591" 
d="M297 1522q-76 0 -130 54t-54 128q0 76 54 130t130 54q74 0 128 -54t54 -130q0 -74 -54 -128t-128 -54zM113 1434h366v-1434h-366v1434z" />
    <glyph glyph-name="dotlessi" unicode="&#x131;" horiz-adv-x="536" 
d="M98 0v1024h340v-1024h-340z" />
    <glyph glyph-name="Kcommaaccent" unicode="&#x136;" horiz-adv-x="1292" 
d="M825 737l475 -737h-409l-412 641v-641h-366v1434h366v-603l391 603h410zM473 -567l21 450h315l-72 -450h-264z" />
    <glyph glyph-name="kcommaaccent" unicode="&#x137;" horiz-adv-x="1110" 
d="M438 436v-436h-340v1434h340v-838l264 428h394l-344 -512l358 -512h-381zM418 -567l20 450h316l-72 -450h-264z" />
    <glyph glyph-name="Lacute" unicode="&#x139;" horiz-adv-x="993" 
d="M670 1843l-238 -297h-323l163 297h398zM479 354h494v-354h-860v1434h366v-1080z" />
    <glyph glyph-name="lacute" unicode="&#x13a;" horiz-adv-x="536" 
d="M96 1556h324l237 297h-397zM98 0v1495h340v-1495h-340z" />
    <glyph glyph-name="Lcommaaccent" unicode="&#x13b;" horiz-adv-x="993" 
d="M479 354h494v-354h-860v1434h366v-1080zM383 -567l20 450h316l-72 -450h-264z" />
    <glyph glyph-name="lcommaaccent" unicode="&#x13c;" horiz-adv-x="536" 
d="M98 0v1495h340v-1495h-340zM356 -567l72 450h-315l-21 -450h264z" />
    <glyph glyph-name="Lcaron" unicode="&#x13d;" horiz-adv-x="993" 
d="M479 354h494v-354h-860v1434h366v-1080zM930 1434l-70 -408h-287l21 408h336z" />
    <glyph glyph-name="lcaron" unicode="&#x13e;" horiz-adv-x="819" 
d="M98 0v1495h340v-1495h-340zM778 1047l70 448h-316l-20 -448h266z" />
    <glyph glyph-name="Lslash" unicode="&#x141;" horiz-adv-x="1034" 
d="M520 354h494v-354h-860v406l-123 -72v362l123 72v666h366v-455l246 143v-362l-246 -144v-262z" />
    <glyph glyph-name="lslash" unicode="&#x142;" horiz-adv-x="571" 
d="M561 1038v-321l-104 -66v-651h-340v434l-107 -67v321l107 68v739h340v-522z" />
    <glyph glyph-name="Nacute" unicode="&#x143;" horiz-adv-x="1382" 
d="M463 1546h323l238 297h-397zM903 1434h365v-1434h-283l-506 721v-721h-366v1434h284l506 -721v721z" />
    <glyph glyph-name="nacute" unicode="&#x144;" horiz-adv-x="1185" 
d="M969 1454l-238 -297h-323l163 297h398zM723 1053q166 0 271 -114q106 -115 106 -327v-612h-340v569q0 81 -42 121q-43 41 -112 41q-80 0 -124 -48q-44 -49 -44 -138v-545h-340v1024h340v-102q92 131 285 131z" />
    <glyph glyph-name="Ncommaaccent" unicode="&#x145;" horiz-adv-x="1382" 
d="M903 1434h365v-1434h-283l-506 721v-721h-366v1434h284l506 -721v721zM805 -567l72 450h-316l-20 -450h264z" />
    <glyph glyph-name="ncommaaccent" unicode="&#x146;" horiz-adv-x="1185" 
d="M723 1053q166 0 271 -114q106 -115 106 -327v-612h-340v569q0 81 -42 121q-43 41 -112 41q-80 0 -124 -48q-44 -49 -44 -138v-545h-340v1024h340v-102q92 131 285 131zM440 -567l21 450h315l-71 -450h-265z" />
    <glyph glyph-name="Ncaron" unicode="&#x147;" horiz-adv-x="1382" 
d="M485 1526l-217 317h307l82 -114l80 114h307l-217 -317h-342zM903 1434h365v-1434h-283l-506 721v-721h-366v1434h284l506 -721v721z" />
    <glyph glyph-name="ncaron" unicode="&#x148;" horiz-adv-x="1185" 
d="M430 1137l-217 317h307l82 -115l80 115h307l-217 -317h-342zM723 1053q166 0 271 -114q106 -115 106 -327v-612h-340v569q0 81 -42 121q-43 41 -112 41q-80 0 -124 -48q-44 -49 -44 -138v-545h-340v1024h340v-102q92 131 285 131z" />
    <glyph glyph-name="Eng" unicode="&#x14a;" horiz-adv-x="1382" 
d="M903 1434h365v-1434q0 -454 -500 -424v315q74 -4 113 25q37 28 37 94v86l-439 625v-721h-366v1434h284l506 -721v721z" />
    <glyph glyph-name="eng" unicode="&#x14b;" horiz-adv-x="1185" 
d="M723 1053q166 0 271 -114q106 -115 106 -327v-612q0 -461 -459 -428v307q58 -4 89 24q30 27 30 97v569q0 81 -42 121q-43 41 -112 41q-80 0 -124 -48q-44 -49 -44 -138v-545h-340v1024h340v-102q92 131 285 131z" />
    <glyph glyph-name="Omacron" unicode="&#x14c;" horiz-adv-x="1617" 
d="M492 1565v266h632v-266h-632zM809 -31q-316 0 -534 216t-218 532q0 315 218 531t534 216q315 0 533 -216q219 -217 219 -531q0 -315 -219 -532q-218 -216 -533 -216zM809 328q166 0 276 109q111 109 111 280q0 169 -111 279q-112 110 -276 110q-165 0 -277 -110
q-110 -109 -110 -279q0 -171 110 -280t277 -109z" />
    <glyph glyph-name="omacron" unicode="&#x14d;" horiz-adv-x="1193" 
d="M279 1155v266h632v-266h-632zM596 -29q-227 0 -387 157t-160 384t160 384t387 157q228 0 388 -157q159 -156 159 -384t-159 -384q-160 -157 -388 -157zM596 299q90 0 148 59q59 61 59 154t-59 154q-58 59 -148 59q-88 0 -146 -59q-59 -61 -59 -154t59 -154
q58 -59 146 -59z" />
    <glyph glyph-name="Ohungarumlaut" unicode="&#x150;" horiz-adv-x="1617" 
d="M401 1546h322l176 307h-334zM795 1546h323l197 307h-336zM809 -31q-316 0 -534 216t-218 532q0 315 218 531t534 216q315 0 533 -216q219 -217 219 -531q0 -315 -219 -532q-218 -216 -533 -216zM809 328q166 0 276 109q111 109 111 280q0 169 -111 279q-112 110 -276 110
q-165 0 -277 -110q-110 -109 -110 -279q0 -171 110 -280t277 -109z" />
    <glyph glyph-name="ohungarumlaut" unicode="&#x151;" horiz-adv-x="1193" 
d="M188 1137h322l176 307h-334zM582 1137h323l197 307h-336zM596 -29q-227 0 -387 157t-160 384t160 384t387 157q228 0 388 -157q159 -156 159 -384t-159 -384q-160 -157 -388 -157zM596 299q90 0 148 59q59 61 59 154t-59 154q-58 59 -148 59q-88 0 -146 -59
q-59 -61 -59 -154t59 -154q58 -59 146 -59z" />
    <glyph glyph-name="OE" unicode="&#x152;" horiz-adv-x="1912" 
d="M1380 344h471v-344h-837q-108 -31 -215 -31q-313 0 -528 216q-214 215 -214 532q0 316 214 531q215 216 528 216q110 0 215 -30h827v-342h-461v-199h410v-338h-410v-211zM1014 365v704q-90 37 -215 37q-166 0 -272 -109q-105 -108 -105 -280q0 -173 105 -281t272 -108
q125 0 215 37z" />
    <glyph glyph-name="oe" unicode="&#x153;" horiz-adv-x="1918" 
d="M1151 387q53 -125 223 -125q116 0 193 72l245 -172q-152 -191 -440 -191q-260 0 -401 185q-135 -185 -389 -185q-230 0 -381 159q-152 160 -152 380q0 223 151 383t382 160q250 0 389 -183q144 183 399 183q217 0 360 -154q142 -152 142 -385q0 -71 -14 -127h-707z
M1147 625h393q-39 141 -190 141q-158 0 -203 -141zM596 299q90 0 148 59q59 61 59 154t-59 154q-58 59 -148 59q-88 0 -146 -59q-59 -61 -59 -154t59 -154q58 -59 146 -59z" />
    <glyph glyph-name="Racute" unicode="&#x154;" horiz-adv-x="1269" 
d="M952 1843l-237 -297h-324l164 297h397zM860 0l-250 463h-131v-463h-366v1434h573q220 0 368 -141t148 -355q0 -131 -65 -237q-66 -108 -179 -171l295 -530h-393zM479 1096v-322h203q68 -2 111 43q43 44 43 117t-43 117q-43 45 -111 45h-203z" />
    <glyph glyph-name="racute" unicode="&#x155;" horiz-adv-x="776" 
d="M758 1434l-238 -297h-323l163 297h398zM438 834q28 98 115 155q85 55 192 55v-376q-117 18 -211 -43q-96 -62 -96 -201v-424h-340v1024h340v-190z" />
    <glyph glyph-name="Rcommaaccent" unicode="&#x156;" horiz-adv-x="1269" 
d="M958 530l295 -530h-393l-250 463h-131v-463h-366v1434h573q220 0 368 -141t148 -355q0 -131 -65 -237q-66 -108 -179 -171zM479 1096v-322h203q68 -2 111 43q43 44 43 117t-43 117q-43 45 -111 45h-203zM496 -567l20 450h315l-71 -450h-264z" />
    <glyph glyph-name="rcommaaccent" unicode="&#x157;" horiz-adv-x="776" 
d="M438 834q28 98 115 155q85 55 192 55v-376q-117 18 -211 -43q-96 -62 -96 -201v-424h-340v1024h340v-190zM90 -567l21 450h315l-72 -450h-264z" />
    <glyph glyph-name="Rcaron" unicode="&#x158;" horiz-adv-x="1269" 
d="M414 1526l-217 317h307l82 -114l80 114h307l-217 -317h-342zM860 0l-250 463h-131v-463h-366v1434h573q220 0 368 -141t148 -355q0 -131 -65 -237q-66 -108 -179 -171l295 -530h-393zM479 1096v-322h203q68 -2 111 43q43 44 43 117t-43 117q-43 45 -111 45h-203z" />
    <glyph glyph-name="rcaron" unicode="&#x159;" horiz-adv-x="776" 
d="M219 1116l-217 318h307l82 -115l80 115h307l-217 -318h-342zM438 834q28 98 115 155q85 55 192 55v-376q-117 18 -211 -43q-96 -62 -96 -201v-424h-340v1024h340v-190z" />
    <glyph glyph-name="Sacute" unicode="&#x15a;" horiz-adv-x="1198" 
d="M393 1567h324l237 297h-397zM623 -31q-225 0 -377 97q-148 95 -209 260l313 182q80 -191 283 -191q168 0 168 97q0 63 -96 102q-34 14 -181 55q-196 57 -311 161t-115 288q0 198 143 321q142 123 355 123q180 0 319 -84t213 -243l-307 -181q-68 160 -223 160
q-66 0 -99 -26q-34 -27 -34 -68q0 -47 50 -80q47 -32 196 -76q105 -30 168 -57q59 -25 139 -77q74 -48 112 -129q37 -78 37 -185q0 -212 -149 -330q-151 -119 -395 -119z" />
    <glyph glyph-name="sacute" unicode="&#x15b;" horiz-adv-x="972" 
d="M840 1454l-238 -297h-323l163 297h398zM424 725q0 -29 52 -47q57 -20 127 -35q78 -17 150 -46q75 -30 127 -101t52 -181q0 -176 -131 -260t-312 -84q-344 0 -458 244l297 150q39 -113 159 -113q93 0 93 55q0 29 -52 47q-59 21 -125 37q-67 17 -147 49q-73 30 -125 100
q-51 69 -51 169q0 164 121 254t291 90q302 0 421 -238l-286 -129q-45 88 -127 88q-76 0 -76 -49z" />
    <glyph glyph-name="Scedilla" unicode="&#x15e;" horiz-adv-x="1198" 
d="M1167 418q0 -177 -106 -290q-105 -113 -291 -146v-76q46 -15 82 -53q37 -38 37 -105q0 -230 -479 -201v224q194 -15 194 28q0 31 -108 41v137q-172 24 -291 117q-116 91 -168 232l313 182q80 -191 283 -191q168 0 168 97q0 63 -96 102q-34 14 -181 55q-196 57 -311 161
t-115 288q0 198 143 321q142 123 355 123q180 0 319 -84t213 -243l-307 -181q-68 160 -223 160q-66 0 -99 -26q-34 -27 -34 -68q0 -47 50 -80q47 -32 196 -76q105 -30 168 -57q59 -25 139 -77q74 -48 112 -129q37 -78 37 -185z" />
    <glyph glyph-name="scedilla" unicode="&#x15f;" horiz-adv-x="972" 
d="M932 315q0 -133 -77 -213t-200 -110v-86q46 -15 82 -53q37 -38 37 -105q0 -230 -479 -201v224q194 -15 194 28q0 31 -108 41v137q-254 35 -350 238l297 150q39 -113 159 -113q93 0 93 55q0 29 -52 47q-59 21 -125 37q-67 17 -147 49q-73 30 -125 100q-51 69 -51 169
q0 164 121 254t291 90q302 0 421 -238l-286 -129q-45 88 -127 88q-76 0 -76 -49q0 -29 52 -47q57 -20 127 -35q78 -17 150 -46q75 -30 127 -101t52 -181z" />
    <glyph glyph-name="Scaron" unicode="&#x160;" horiz-adv-x="1198" 
d="M416 1546l-217 318h307l82 -115l80 115h307l-217 -318h-342zM711 866q105 -30 168 -57q59 -25 139 -77q74 -48 112 -129q37 -78 37 -185q0 -212 -149 -330q-151 -119 -395 -119q-225 0 -377 97q-148 95 -209 260l313 182q80 -191 283 -191q168 0 168 97q0 63 -96 102
q-34 14 -181 55q-196 57 -311 161t-115 288q0 198 143 321q142 123 355 123q180 0 319 -84t213 -243l-307 -181q-68 160 -223 160q-66 0 -99 -26q-34 -27 -34 -68q0 -47 50 -80q47 -32 196 -76z" />
    <glyph glyph-name="scaron" unicode="&#x161;" horiz-adv-x="972" 
d="M301 1137l-217 317h307l82 -115l80 115h307l-217 -317h-342zM424 725q0 -29 52 -47q57 -20 127 -35q78 -17 150 -46q75 -30 127 -101t52 -181q0 -176 -131 -260t-312 -84q-344 0 -458 244l297 150q39 -113 159 -113q93 0 93 55q0 29 -52 47q-59 21 -125 37
q-67 17 -147 49q-73 30 -125 100q-51 69 -51 169q0 164 121 254t291 90q302 0 421 -238l-286 -129q-45 88 -127 88q-76 0 -76 -49z" />
    <glyph glyph-name="uni0162" unicode="&#x162;" horiz-adv-x="1116" 
d="M1096 1434v-355h-355v-1079h-366v1079h-355v355h1076zM385 -567l21 450h315l-72 -450h-264z" />
    <glyph glyph-name="uni0163" unicode="&#x163;" horiz-adv-x="806" 
d="M733 698h-213v-297q0 -68 49 -84q48 -16 164 -10v-307q-304 -37 -429 56q-124 93 -124 337v305h-153v326h153v184l340 103v-287h213v-326zM299 -557l20 451h316l-72 -451h-264z" />
    <glyph glyph-name="Tcaron" unicode="&#x164;" horiz-adv-x="1116" 
d="M377 1526l-217 317h307l82 -114l80 114h307l-217 -317h-342zM1096 1434v-355h-355v-1079h-366v1079h-355v355h1076z" />
    <glyph glyph-name="tcaron" unicode="&#x165;" horiz-adv-x="880" 
d="M616 1487h306l-72 -389h-254zM520 1311v-287h213v-326h-213v-297q0 -68 49 -84q48 -16 164 -10v-307q-304 -37 -429 56q-124 93 -124 337v305h-153v326h153v184z" />
    <glyph glyph-name="Tbar" unicode="&#x166;" horiz-adv-x="1116" 
d="M1096 1079h-355v-235h215v-324h-215v-520h-366v520h-215v324h215v235h-355v355h1076v-355z" />
    <glyph glyph-name="tbar" unicode="&#x167;" horiz-adv-x="806" 
d="M733 727h-213v-84h150v-246h-150q0 -45 26 -66q27 -22 72 -25q51 -3 115 1v-307q-304 -37 -429 56q-124 93 -124 337v4h-102v246h102v84h-153v297h153v184l340 103v-287h213v-297z" />
    <glyph glyph-name="Umacron" unicode="&#x16a;" horiz-adv-x="1331" 
d="M348 1544v266h633v-266h-633zM666 -31q-249 0 -409 137q-159 136 -159 365v963h367v-928q0 -180 201 -180q200 0 200 180v928h367v-963q0 -229 -159 -365q-160 -137 -408 -137z" />
    <glyph glyph-name="umacron" unicode="&#x16b;" horiz-adv-x="1185" 
d="M903 1401v-266h-633v266h633zM748 1024h339v-1024h-339v102q-92 -131 -285 -131q-167 0 -272 114t-105 327v612h340v-569q0 -81 42 -121q43 -41 112 -41q80 0 123 48q45 50 45 138v545z" />
    <glyph glyph-name="Uring" unicode="&#x16e;" horiz-adv-x="1331" 
d="M666 1450q-124 0 -206 77q-81 77 -81 193q0 118 81 194q82 77 206 77q128 0 208 -77t80 -194t-80 -194q-79 -76 -208 -76zM666 1655q69 0 69 65q0 66 -69 66q-31 0 -50 -19q-18 -18 -18 -47t18 -47t50 -18zM666 -31q-249 0 -409 137q-159 136 -159 365v963h367v-928
q0 -180 201 -180q200 0 200 180v928h367v-963q0 -229 -159 -365q-160 -137 -408 -137z" />
    <glyph glyph-name="uring" unicode="&#x16f;" horiz-adv-x="1185" 
d="M588 1092q-126 0 -206 76q-81 76 -81 194q0 116 81 193q82 77 206 77q129 0 209 -77t80 -193q0 -118 -80 -195q-78 -75 -209 -75zM588 1427q-31 0 -49 -18q-19 -19 -19 -47t19 -47t49 -19q69 0 69 66q0 65 -69 65zM748 1024h339v-1024h-339v102q-92 -131 -285 -131
q-167 0 -272 114t-105 327v612h340v-569q0 -81 42 -121q43 -41 112 -41q80 0 123 48q45 50 45 138v545z" />
    <glyph glyph-name="Uhungarumlaut" unicode="&#x170;" horiz-adv-x="1331" 
d="M258 1526h322l176 307h-334zM651 1526h324l196 307h-335zM666 -31q-249 0 -409 137q-159 136 -159 365v963h367v-928q0 -180 201 -180q200 0 200 180v928h367v-963q0 -229 -159 -365q-160 -137 -408 -137z" />
    <glyph glyph-name="uhungarumlaut" unicode="&#x171;" horiz-adv-x="1185" 
d="M678 1423l-176 -307h-322l164 307h334zM897 1116h-324l185 307h336zM748 479v545h339v-1024h-339v102q-92 -131 -285 -131q-167 0 -272 114t-105 327v612h340v-569q0 -81 42 -121q43 -41 112 -41q80 0 123 48q45 50 45 138z" />
    <glyph glyph-name="Uogonek" unicode="&#x172;" horiz-adv-x="1331" 
d="M866 1434h367v-963q0 -249 -189 -389q-92 -84 -128 -137q-35 -52 -37 -105q-1 -43 43 -47q15 -1 43 6v-202q-87 -35 -181 -35q-92 0 -153 47q-60 47 -60 139q0 102 99 221h-4q-249 0 -409 137q-159 136 -159 365v963h367v-928q0 -180 201 -180q200 0 200 180v928z" />
    <glyph glyph-name="uogonek" unicode="&#x173;" horiz-adv-x="1185" 
d="M1087 0q-86 -95 -86 -160q-5 -47 43 -47q15 -1 43 6v-202q-87 -35 -180 -35q-92 0 -153 47q-60 47 -60 139q0 121 125 252h-71v102q-92 -131 -285 -131q-167 0 -272 114t-105 327v612h340v-569q0 -81 42 -121q43 -41 112 -41q80 0 123 48q45 50 45 138v545h339v-1024z
" />
    <glyph glyph-name="Wcircumflex" unicode="&#x174;" horiz-adv-x="2056" 
d="M1085 1640l-81 -114h-308l217 317h342l218 -317h-308zM1651 1434h393l-399 -1434h-388l-229 809l-229 -809h-387l-402 1434h396l221 -904l256 904h288l256 -904z" />
    <glyph glyph-name="wcircumflex" unicode="&#x175;" horiz-adv-x="1634" 
d="M809 1231l-82 -115h-307l217 318h342l217 -318h-307zM1249 1024h361l-314 -1024h-331l-148 520l-147 -520h-332l-313 1024h360l135 -557l154 557h287l153 -557z" />
    <glyph glyph-name="Ycircumflex" unicode="&#x176;" horiz-adv-x="1333" 
d="M657 1640l-82 -114h-307l217 317h342l217 -317h-307zM1333 1434l-483 -883v-551h-367v547l-483 887h412l254 -531l256 531h411z" />
    <glyph glyph-name="ycircumflex" unicode="&#x177;" horiz-adv-x="1124" 
d="M561 1231l-82 -115h-307l217 318h342l217 -318h-307zM748 1024h376l-350 -1008q-83 -232 -231 -333q-152 -103 -387 -93v320q108 0 163 27q57 28 91 96l-410 991h381l207 -594z" />
    <glyph glyph-name="Ydieresis" unicode="&#x178;" horiz-adv-x="1333" 
d="M467 1505q-68 0 -116 48t-48 116t48 116t116 48q66 0 114 -48t48 -116t-48 -116t-114 -48zM864 1505q-65 0 -113 48q-49 49 -49 116t49 116q48 48 113 48q68 0 116 -48t48 -116t-48 -116t-116 -48zM1333 1434l-483 -883v-551h-367v547l-483 887h412l254 -531l256 531h411
z" />
    <glyph glyph-name="Zacute" unicode="&#x179;" horiz-adv-x="1110" 
d="M928 1843l-238 -297h-323l163 297h398zM543 354h522v-354h-997v283l505 796h-495v355h971v-283z" />
    <glyph glyph-name="zacute" unicode="&#x17a;" horiz-adv-x="991" 
d="M860 1434l-237 -297h-324l164 297h397zM537 315h383v-315h-838v233l362 476h-342v315h797v-233z" />
    <glyph glyph-name="Zdotaccent" unicode="&#x17b;" horiz-adv-x="1110" 
d="M569 1522q-76 0 -130 54t-54 128q0 76 54 130t130 54q74 0 128 -54q55 -55 55 -130q0 -73 -55 -128q-54 -54 -128 -54zM543 354h522v-354h-997v283l505 796h-495v355h971v-283z" />
    <glyph glyph-name="zdotaccent" unicode="&#x17c;" horiz-adv-x="991" 
d="M502 1112q-76 0 -130 54q-55 55 -55 128q0 75 55 130t130 55q73 0 128 -55q54 -54 54 -130q0 -74 -54 -128t-128 -54zM537 315h383v-315h-838v233l362 476h-342v315h797v-233z" />
    <glyph glyph-name="Zcaron" unicode="&#x17d;" horiz-adv-x="1110" 
d="M389 1526l-217 317h307l82 -114l80 114h307l-217 -317h-342zM543 354h522v-354h-997v283l505 796h-495v355h971v-283z" />
    <glyph glyph-name="zcaron" unicode="&#x17e;" horiz-adv-x="991" 
d="M322 1116l-218 318h308l82 -115l79 115h308l-217 -318h-342zM537 315h383v-315h-838v233l362 476h-342v315h797v-233z" />
    <glyph glyph-name="florin" unicode="&#x192;" horiz-adv-x="944" 
d="M387 1100q39 230 192 312q154 83 365 34v-336q-59 33 -126 4t-79 -110l-20 -121h151v-326h-206l-107 -620q-39 -231 -191 -313q-154 -83 -366 -34v336q59 -32 125 -4q65 28 80 111l90 524h-139v326h194z" />
    <glyph glyph-name="Scommaaccent" unicode="&#x218;" horiz-adv-x="1198" 
d="M623 -31q-225 0 -377 97q-148 95 -209 260l313 182q80 -191 283 -191q168 0 168 97q0 63 -96 102q-34 14 -181 55q-196 57 -311 161t-115 288q0 198 143 321q142 123 355 123q180 0 319 -84t213 -243l-307 -181q-68 160 -223 160q-66 0 -99 -26q-34 -27 -34 -68
q0 -47 50 -80q47 -32 196 -76q105 -30 168 -57q59 -25 139 -77q74 -48 112 -129q37 -78 37 -185q0 -212 -149 -330q-151 -119 -395 -119zM731 -567l72 450h-316l-20 -450h264z" />
    <glyph glyph-name="scommaaccent" unicode="&#x219;" horiz-adv-x="972" 
d="M424 725q0 -29 52 -47q57 -20 127 -35q78 -17 150 -46q75 -30 127 -101t52 -181q0 -176 -131 -260t-312 -84q-344 0 -458 244l297 150q39 -113 159 -113q93 0 93 55q0 29 -52 47q-59 21 -125 37q-67 17 -147 49q-73 30 -125 100q-51 69 -51 169q0 164 121 254t291 90
q302 0 421 -238l-286 -129q-45 88 -127 88q-76 0 -76 -49zM352 -567l21 450h315l-72 -450h-264z" />
    <glyph glyph-name="uni021A" unicode="&#x21a;" horiz-adv-x="1116" 
d="M1096 1434v-355h-355v-1079h-366v1079h-355v355h1076zM385 -567l21 450h315l-72 -450h-264z" />
    <glyph glyph-name="uni021B" unicode="&#x21b;" horiz-adv-x="806" 
d="M733 698h-213v-297q0 -68 49 -84q48 -16 164 -10v-307q-304 -37 -429 56q-124 93 -124 337v305h-153v326h153v184l340 103v-287h213v-326zM299 -557l20 451h316l-72 -451h-264z" />
    <glyph glyph-name="circumflex" unicode="&#x2c6;" horiz-adv-x="858" 
d="M817 1116h-307l-80 115l-82 -115h-307l217 318h342z" />
    <glyph glyph-name="caron" unicode="&#x2c7;" horiz-adv-x="858" 
d="M510 1434h307l-217 -318h-342l-217 318h307l82 -115z" />
    <glyph glyph-name="breve" unicode="&#x2d8;" horiz-adv-x="817" 
d="M408 1100q-178 0 -273 84q-94 84 -94 243h287q0 -90 80 -90q81 0 81 90h287q0 -159 -95 -243t-273 -84z" />
    <glyph glyph-name="dotaccent" unicode="&#x2d9;" horiz-adv-x="460" 
d="M225 1112q-76 0 -130 54t-54 128q0 76 54 130q55 55 130 55q73 0 128 -55t55 -130q0 -73 -55 -128q-54 -54 -128 -54z" />
    <glyph glyph-name="ring" unicode="&#x2da;" horiz-adv-x="657" 
d="M328 1092q-126 0 -206 76q-81 76 -81 194q0 116 81 193q82 77 206 77q129 0 209 -77q79 -76 79 -193q0 -119 -79 -195q-78 -75 -209 -75zM328 1296q69 0 69 66q0 65 -69 65q-31 0 -49 -18q-19 -19 -19 -47t19 -47t49 -19z" />
    <glyph glyph-name="ogonek" unicode="&#x2db;" horiz-adv-x="477" 
d="M256 -438q-94 0 -155 47q-60 47 -60 139q0 119 127 252h268q-88 -94 -88 -160q-5 -47 45 -47q10 -1 43 6v-202q-87 -35 -180 -35z" />
    <glyph glyph-name="tilde" unicode="&#x2dc;" horiz-adv-x="817" 
d="M41 1122q0 100 24 172q24 73 62 108t90 49t105 3q52 -10 108 -39q49 -33 75 -28q25 4 25 67h246q0 -104 -23 -173q-24 -73 -63 -109t-90 -48q-53 -13 -105 -1q-57 13 -110 40q-49 33 -74 28q-24 -5 -24 -69h-246z" />
    <glyph glyph-name="hungarumlaut" unicode="&#x2dd;" horiz-adv-x="995" 
d="M41 1116h321l177 307h-334zM434 1116h324l196 307h-336z" />
    <glyph glyph-name="gravecomb" unicode="&#x300;" horiz-adv-x="0" 
d="M-41 1137l-164 297h-397l237 -297h324z" />
    <glyph glyph-name="acutecomb" unicode="&#x301;" horiz-adv-x="0" 
d="M-573 1137h323l238 297h-398z" />
    <glyph glyph-name="uni0302" unicode="&#x302;" horiz-adv-x="0" 
d="M-41 1116h-307l-80 115l-82 -115h-307l217 318h342z" />
    <glyph glyph-name="tildecomb" unicode="&#x303;" horiz-adv-x="0" 
d="M-764 1122q0 100 24 172q24 73 62 108t90 49t105 3q53 -10 108 -39q49 -33 75 -28t26 67h245q0 -104 -23 -173q-24 -73 -63 -109t-90 -48q-53 -13 -105 -1q-57 13 -110 40q-49 33 -74 28q-24 -5 -24 -69h-246z" />
    <glyph glyph-name="uni0304" unicode="&#x304;" horiz-adv-x="0" 
d="M-674 1135v266h633v-266h-633z" />
    <glyph glyph-name="uni0306" unicode="&#x306;" horiz-adv-x="0" 
d="M-420 1100q-178 0 -272 84t-94 243h286q0 -90 80 -90q82 0 82 90h287q0 -159 -95 -243t-274 -84z" />
    <glyph glyph-name="uni0307" unicode="&#x307;" horiz-adv-x="0" 
d="M-223 1112q-76 0 -130 54q-55 55 -55 128q0 75 55 130t130 55q73 0 128 -55q54 -54 54 -130q0 -74 -54 -128t-128 -54z" />
    <glyph glyph-name="uni0308" unicode="&#x308;" horiz-adv-x="0" 
d="M-602 1096q-68 0 -116 48t-48 116q0 67 48 115t116 48q66 0 114 -48t48 -115q0 -68 -48 -116t-114 -48zM-205 1096q-65 0 -113 48q-49 49 -49 116q0 66 49 115q48 48 113 48q68 0 116 -48t48 -115q0 -68 -48 -116t-116 -48z" />
    <glyph glyph-name="uni030A" unicode="&#x30a;" horiz-adv-x="0" 
d="M-334 1092q-126 0 -206 76q-81 76 -81 194q0 116 81 193q82 77 206 77q129 0 209 -77t80 -193q0 -118 -80 -195q-78 -75 -209 -75zM-334 1296q70 0 70 66q0 65 -70 65q-31 0 -49 -18t-18 -47t18 -47q19 -19 49 -19z" />
    <glyph glyph-name="uni030B" unicode="&#x30b;" horiz-adv-x="0" 
d="M-954 1116h321l176 307h-334zM-561 1116h323l197 307h-336z" />
    <glyph glyph-name="uni030C" unicode="&#x30c;" horiz-adv-x="0" 
d="M-348 1434h307l-217 -318h-342l-217 318h307l82 -115z" />
    <glyph glyph-name="uni0312" unicode="&#x312;" horiz-adv-x="0" 
d="M-305 2017l-72 -450h316l20 450h-264z" />
    <glyph glyph-name="uni0326" unicode="&#x326;" horiz-adv-x="0" 
d="M-113 -567l72 450h-315l-21 -450h264z" />
    <glyph glyph-name="uni0327" unicode="&#x327;" horiz-adv-x="0" 
d="M-160 -94q46 -15 82 -53q37 -38 37 -105q0 -230 -479 -201v224q194 -15 194 28q0 31 -108 41v160h274v-94z" />
    <glyph glyph-name="uni0328" unicode="&#x328;" horiz-adv-x="0" 
d="M-231 -438q-94 0 -155 47q-60 47 -60 139q0 119 127 252h268q-88 -94 -88 -160q-5 -47 45 -47q10 -1 43 6v-202q-87 -35 -180 -35z" />
    <glyph glyph-name="uni0394" unicode="&#x394;" horiz-adv-x="1351" 
d="M895 1434l467 -1434h-1372l467 1434h438zM477 317h397l-198 701z" />
    <glyph glyph-name="uni03A9" unicode="&#x3a9;" horiz-adv-x="1587" 
d="M1546 758q0 -244 -170 -414h140v-344h-576v354q107 40 174 138q66 96 66 225q0 169 -111 279q-112 110 -276 110q-166 0 -276 -110q-109 -109 -109 -279q0 -130 65 -225q67 -98 174 -138v-354h-575v344h137q-168 172 -168 414q0 305 217 506q216 200 535 200t535 -200
q218 -201 218 -506z" />
    <glyph glyph-name="pi" unicode="&#x3c0;" horiz-adv-x="1353" 
d="M1321 1024v-322h-152v-702h-340v702h-301v-702h-340v702h-157v322h1290z" />
    <glyph glyph-name="uni0401" unicode="&#x401;" horiz-adv-x="1095" 
d="M371 1505q-68 0 -116 48t-48 116t48 116t116 48q65 0 113 -48t48 -116t-48 -116t-113 -48zM768 1505q-66 0 -114 48t-48 116t48 116t114 48q68 0 116 -48t48 -116t-48 -116t-116 -48zM479 344h555v-344h-921v1434h911v-342h-545v-199h494v-338h-494v-211z" />
    <glyph glyph-name="uni0402" unicode="&#x402;" horiz-adv-x="1443" 
d="M987 922q176 0 276 -103q99 -102 99 -299v-106q0 -239 -118 -347q-119 -109 -363 -94v326q67 -4 93 23q25 26 25 92v63q0 117 -116 117q-75 0 -162 -29v-565h-367v1079h-334v355h1076v-355h-375v-192q143 35 266 35z" />
    <glyph glyph-name="uni0403" unicode="&#x403;" horiz-adv-x="972" 
d="M885 1841l-238 -297h-323l163 297h398zM961 1434v-355h-482v-1079h-366v1434h848z" />
    <glyph glyph-name="uni0404" unicode="&#x404;" horiz-adv-x="1472" 
d="M801 322q103 0 185 46q84 47 124 126l315 -185q-92 -157 -258 -248q-167 -92 -362 -92q-326 0 -537 214t-211 534q0 319 211 533t537 214q194 0 361 -92q168 -92 259 -248l-315 -182q-44 78 -125 124q-82 46 -184 46q-129 0 -220 -60t-135 -167h519v-336h-519
q44 -107 135 -167t220 -60z" />
    <glyph glyph-name="uni0405" unicode="&#x405;" horiz-adv-x="1198" 
d="M623 -31q-225 0 -377 97q-148 95 -209 260l313 182q80 -191 283 -191q168 0 168 97q0 63 -96 102q-34 14 -181 55q-196 57 -311 161t-115 288q0 198 143 321q142 123 355 123q180 0 319 -84t213 -243l-307 -181q-68 160 -223 160q-66 0 -99 -26q-34 -27 -34 -68
q0 -47 50 -80q47 -32 196 -76q105 -30 168 -57q59 -25 139 -77q74 -48 112 -129q37 -78 37 -185q0 -212 -149 -330q-151 -119 -395 -119z" />
    <glyph glyph-name="uni0406" unicode="&#x406;" horiz-adv-x="591" 
d="M113 1434h366v-1434h-366v1434z" />
    <glyph glyph-name="uni0407" unicode="&#x407;" horiz-adv-x="591" 
d="M98 1505q-67 0 -115 48q-49 49 -49 116t49 116q48 48 115 48q66 0 114 -48t48 -116t-48 -116t-114 -48zM496 1505q-66 0 -114 48t-48 116t48 116t114 48q67 0 115 -48t48 -116t-48 -116t-115 -48zM113 1434h366v-1434h-366v1434z" />
    <glyph glyph-name="uni0408" unicode="&#x408;" horiz-adv-x="1169" 
d="M547 -31q-352 0 -496 287l314 182q29 -58 71 -86q39 -26 111 -26q158 0 158 145v963h366v-969q0 -232 -142 -364q-143 -132 -382 -132z" />
    <glyph glyph-name="uni0409" unicode="&#x409;" horiz-adv-x="1921" 
d="M1378 950q216 0 364 -130t148 -345t-148 -345t-364 -130h-516v1079h-266v-520q0 -175 -50 -298q-50 -122 -137 -179q-88 -58 -185 -77t-214 -9v342q115 -12 167 37t52 200v859h1000v-484h149zM1378 348q146 0 146 127t-146 127h-149v-254h149z" />
    <glyph glyph-name="uni040A" unicode="&#x40a;" horiz-adv-x="1931" 
d="M1389 952q214 0 363 -131t149 -346q0 -213 -149 -344t-363 -131h-517v602h-393v-602h-366v1434h366v-482h393v482h367v-482h150zM1389 350q145 0 145 125q0 127 -145 127h-150v-252h150z" />
    <glyph glyph-name="uni040B" unicode="&#x40b;" horiz-adv-x="1454" 
d="M987 932q176 0 276 -103q99 -102 99 -299v-530h-363v485q0 119 -116 119q-75 0 -162 -29v-575h-367v1079h-334v355h1076v-355h-375v-184q149 37 266 37z" />
    <glyph glyph-name="uni040C" unicode="&#x40c;" horiz-adv-x="1292" 
d="M1006 1841l-238 -297h-324l164 297h398zM1300 0h-409l-412 641v-641h-366v1434h366v-603l391 603h410l-455 -697z" />
    <glyph glyph-name="uni040E" unicode="&#x40e;" horiz-adv-x="1288" 
d="M985 1829v-287h-661v287h661zM901 1434h375l-414 -994q-99 -235 -257 -342q-160 -108 -392 -98v342q196 -17 287 104l-469 988h377l264 -586z" />
    <glyph glyph-name="uni040F" unicode="&#x40f;" horiz-adv-x="1331" 
d="M852 1434h367v-1434h-371v-274h-365v274h-370v1434h366v-1080h373v1080z" />
    <glyph glyph-name="uni0410" unicode="&#x410;" horiz-adv-x="1374" 
d="M987 0l-61 207h-477l-62 -207h-397l473 1434h446l473 -1434h-395zM543 522h288l-145 488z" />
    <glyph glyph-name="uni0411" unicode="&#x411;" horiz-adv-x="1212" 
d="M705 905q219 0 350 -123t131 -327q0 -205 -131 -330t-350 -125h-592v1434h950v-355h-584v-174h226zM690 336q59 0 95 30t36 89q0 60 -36 90t-95 30h-211v-239h211z" />
    <glyph glyph-name="uni0412" unicode="&#x412;" horiz-adv-x="1232" 
d="M1018 741q180 -107 180 -321q0 -191 -131 -305q-132 -115 -350 -115h-604v1434h565q214 0 344 -110q129 -110 129 -298q0 -180 -133 -285zM668 1106h-189v-225h189q50 0 83 29t33 83q0 53 -32 82q-34 31 -84 31zM707 328q57 0 90 33q34 34 34 88q0 55 -34 88
q-33 32 -90 32h-228v-241h228z" />
    <glyph glyph-name="uni0413" unicode="&#x413;" horiz-adv-x="972" 
d="M961 1434v-355h-482v-1079h-366v1434h848z" />
    <glyph glyph-name="uni0414" unicode="&#x414;" horiz-adv-x="1458" 
d="M1268 354h153v-628h-364v274h-670v-274h-367v628h152q98 156 98 455v625h998v-1080zM553 354h350v740h-268v-289q0 -288 -82 -451z" />
    <glyph glyph-name="uni0415" unicode="&#x415;" horiz-adv-x="1095" 
d="M479 344h555v-344h-921v1434h911v-342h-545v-199h494v-338h-494v-211z" />
    <glyph glyph-name="uni0416" unicode="&#x416;" horiz-adv-x="1898" 
d="M1886 0h-405l-348 625v-625h-367v625l-350 -625h-406l432 725l-411 709h405l330 -621v621h367v-621l327 621h406l-410 -709z" />
    <glyph glyph-name="uni0417" unicode="&#x417;" horiz-adv-x="1146" 
d="M920 739q192 -108 192 -336q0 -197 -147 -315q-148 -119 -390 -119q-419 0 -555 336l314 180q62 -170 241 -170q170 0 170 127q0 111 -137 123l-217 2v318h141q166 0 166 119q0 118 -147 118q-148 0 -205 -145l-307 178q65 144 200 227q133 82 318 82q228 0 367 -117
q141 -119 141 -313q0 -189 -145 -295z" />
    <glyph glyph-name="uni0418" unicode="&#x418;" horiz-adv-x="1382" 
d="M903 0v721l-506 -721h-284v1434h366v-721l506 721h283v-1434h-365z" />
    <glyph glyph-name="uni0419" unicode="&#x419;" horiz-adv-x="1382" 
d="M358 1544v287h662v-287h-662zM903 0v721l-506 -721h-284v1434h366v-721l506 721h283v-1434h-365z" />
    <glyph glyph-name="uni041A" unicode="&#x41a;" horiz-adv-x="1292" 
d="M1300 0h-409l-412 641v-641h-366v1434h366v-603l391 603h410l-455 -697z" />
    <glyph glyph-name="uni041B" unicode="&#x41b;" horiz-adv-x="1361" 
d="M10 0v342q113 -15 167 34q52 48 52 199v859h1020v-1434h-366v1079h-287v-520q0 -175 -50 -298q-50 -122 -137 -179q-89 -58 -186 -76q-99 -18 -213 -6z" />
    <glyph glyph-name="uni041C" unicode="&#x41c;" horiz-adv-x="1689" 
d="M1575 1434v-1434h-365v772l-348 -575h-37l-346 573v-770h-366v1434h366l365 -613l366 613h365z" />
    <glyph glyph-name="uni041D" unicode="&#x41d;" horiz-adv-x="1361" 
d="M883 1434h364v-1434h-364v551h-404v-551h-366v1434h366v-531h404v531z" />
    <glyph glyph-name="uni041E" unicode="&#x41e;" horiz-adv-x="1617" 
d="M809 -31q-316 0 -534 216t-218 532q0 315 218 531t534 216q315 0 533 -216q219 -217 219 -531q0 -315 -219 -532q-218 -216 -533 -216zM809 328q166 0 276 109q111 109 111 280q0 169 -111 279q-112 110 -276 110q-165 0 -277 -110q-110 -109 -110 -279q0 -171 110 -280
t277 -109z" />
    <glyph glyph-name="uni041F" unicode="&#x41f;" horiz-adv-x="1331" 
d="M1219 1434v-1434h-367v1079h-373v-1079h-366v1434h1106z" />
    <glyph glyph-name="uni0420" unicode="&#x420;" horiz-adv-x="1212" 
d="M670 1434q216 0 364 -142t148 -360q0 -219 -148 -361q-147 -141 -364 -141h-191v-430h-366v1434h557zM670 778q61 0 103 43t42 111q0 67 -42 109t-103 42h-191v-305h191z" />
    <glyph glyph-name="uni0421" unicode="&#x421;" horiz-adv-x="1472" 
d="M805 -31q-325 0 -536 214q-212 215 -212 534q0 318 212 533q211 214 536 214q193 0 360 -92q165 -90 260 -248l-317 -182q-40 76 -122 120t-181 44q-173 0 -278 -108t-105 -281q0 -174 105 -282q104 -107 278 -107q99 0 181 44q81 44 122 122l317 -185
q-95 -158 -259 -249t-361 -91z" />
    <glyph glyph-name="uni0422" unicode="&#x422;" horiz-adv-x="1116" 
d="M1096 1434v-355h-355v-1079h-366v1079h-355v355h1076z" />
    <glyph glyph-name="uni0423" unicode="&#x423;" horiz-adv-x="1288" 
d="M901 1434h375l-414 -994q-99 -235 -257 -342q-160 -108 -392 -98v342q196 -17 287 104l-469 988h377l264 -586z" />
    <glyph glyph-name="uni0424" unicode="&#x424;" horiz-adv-x="1705" 
d="M1665 717q0 -241 -168 -396q-168 -154 -467 -192v-170h-352v170q-298 37 -468 192q-169 154 -169 396t169 396q170 155 468 192v170h352v-170q299 -38 467 -192q168 -155 168 -396zM408 717q0 -213 270 -252v510q-139 -21 -205 -84q-65 -62 -65 -174zM1030 465
q140 21 205 83t65 169q0 112 -65 174q-66 63 -205 84v-510z" />
    <glyph glyph-name="uni0425" unicode="&#x425;" horiz-adv-x="1294" 
d="M1282 0h-410l-225 381l-225 -381h-412l432 731l-415 703h411l209 -355l209 355h412l-416 -705z" />
    <glyph glyph-name="uni0426" unicode="&#x426;" horiz-adv-x="1437" 
d="M1237 354h164v-628h-367v274h-921v1434h376v-1080h373v1080h375v-1080z" />
    <glyph glyph-name="uni0427" unicode="&#x427;" horiz-adv-x="1325" 
d="M846 1434h364v-1434h-364v475q-117 -39 -244 -39q-232 0 -373 129t-141 357v512h365v-473q0 -82 49 -127q51 -46 127 -46q113 0 217 37v609z" />
    <glyph glyph-name="uni0428" unicode="&#x428;" horiz-adv-x="1943" 
d="M1464 1434h367v-1434h-1718v1434h366v-1080h309v1080h367v-1080h309v1080z" />
    <glyph glyph-name="uni0429" unicode="&#x429;" horiz-adv-x="2031" 
d="M1831 354h164v-628h-367v274h-1515v1434h366v-1080h309v1080h367v-1080h309v1080h367v-1080z" />
    <glyph glyph-name="uni042A" unicode="&#x42a;" horiz-adv-x="1427" 
d="M328 0v1079h-328v355h694v-430h191q214 0 363 -143t149 -359q0 -219 -148 -361q-147 -141 -364 -141h-557zM694 348h191q61 0 103 43t42 111q0 67 -42 109t-103 42h-191v-305z" />
    <glyph glyph-name="uni042B" unicode="&#x42b;" horiz-adv-x="1779" 
d="M113 0v1434h366v-430h191q216 0 364 -143t148 -359q0 -219 -148 -361q-147 -141 -364 -141h-557zM1300 0v1434h365v-1434h-365zM479 348h191q61 0 103 43t42 111q0 67 -42 109t-103 42h-191v-305z" />
    <glyph glyph-name="uni042C" unicode="&#x42c;" horiz-adv-x="1212" 
d="M670 1004q216 0 364 -142t148 -360q0 -219 -148 -361q-147 -141 -364 -141h-557v1434h366v-430h191zM670 350q61 0 103 42t42 110q0 66 -42 110q-42 43 -103 43h-191v-305h191z" />
    <glyph glyph-name="uni042D" unicode="&#x42d;" horiz-adv-x="1472" 
d="M668 1464q325 0 536 -214t211 -533q0 -320 -211 -534t-536 -214q-196 0 -363 92q-166 91 -258 248l315 185q40 -79 124 -126q82 -46 186 -46q128 0 220 60q90 59 134 167h-518v336h518q-44 108 -134 167q-91 60 -220 60q-103 0 -185 -46q-81 -46 -125 -124l-315 182
q91 156 259 248q167 92 362 92z" />
    <glyph glyph-name="uni042E" unicode="&#x42e;" horiz-adv-x="2187" 
d="M1378 1464q316 0 534 -216t218 -531q0 -313 -219 -531q-218 -217 -533 -217q-271 0 -471 166q-201 167 -252 426h-176v-561h-366v1434h366v-521h187q62 245 257 398t455 153zM1378 328q167 0 277 109t110 280q0 170 -110 279q-112 110 -277 110q-164 0 -276 -109
q-111 -108 -111 -280q0 -171 111 -280q110 -109 276 -109z" />
    <glyph glyph-name="uni042F" unicode="&#x42f;" horiz-adv-x="1290" 
d="M1176 1434v-1434h-365v463h-78l-289 -463h-407l328 514q-127 60 -202 172t-75 252q0 213 148 355q147 141 366 141h574zM606 774h205v322h-205q-66 0 -109 -46q-44 -47 -44 -116q0 -71 44 -117q43 -44 109 -43z" />
    <glyph glyph-name="uni0430" unicode="&#x430;" horiz-adv-x="1259" 
d="M821 1024h340v-1024h-340v94q-105 -123 -291 -123q-205 0 -343 155q-138 154 -138 386t138 386q138 155 343 155q186 0 291 -123v94zM606 289q96 0 156 61q59 60 59 162t-59 162q-60 61 -156 61q-95 0 -155 -61q-60 -62 -60 -162t60 -162q60 -61 155 -61z" />
    <glyph glyph-name="uni0431" unicode="&#x431;" horiz-adv-x="1165" 
d="M610 -31q-252 0 -406 157q-153 156 -153 411q0 257 83 408q82 150 296 255q230 112 285 156q59 49 92 125l278 -160q-30 -115 -115 -182q-86 -67 -255 -135q-132 -51 -194 -96q-59 -43 -83 -99q101 88 264 88q172 0 305 -123q134 -123 134 -325q0 -209 -145 -345
q-144 -135 -386 -135zM606 264q85 0 138 52q55 53 55 130q0 80 -57 133q-56 52 -142 52q-78 0 -135 -48t-57 -130q0 -83 57 -136q58 -53 141 -53z" />
    <glyph glyph-name="uni0432" unicode="&#x432;" horiz-adv-x="1064" 
d="M885 522q143 -67 143 -227q0 -135 -92 -215t-266 -80h-572v1024h537q172 0 264 -80t92 -215t-106 -207zM584 770h-160v-135h160q82 0 82 65q0 70 -82 70zM610 258q80 0 80 72q0 67 -80 67h-186v-139h186z" />
    <glyph glyph-name="uni0433" unicode="&#x433;" horiz-adv-x="854" 
d="M834 1024v-326h-396v-698h-340v1024h736z" />
    <glyph glyph-name="uni0434" unicode="&#x434;" horiz-adv-x="1228" 
d="M1065 322h133v-596h-328v274h-532v-274h-328v596h123q78 128 78 348v354h854v-702zM485 322h248v399h-190v-51q0 -201 -58 -348z" />
    <glyph glyph-name="uni0435" unicode="&#x435;" horiz-adv-x="1169" 
d="M401 387q51 -125 230 -125q109 0 186 72l246 -172q-152 -191 -440 -191q-261 0 -417 153q-157 154 -157 386q0 230 154 387q153 156 391 156q228 0 379 -154q149 -152 149 -385q0 -71 -14 -127h-707zM397 623h394q-40 143 -193 143q-158 0 -201 -143z" />
    <glyph glyph-name="uni0436" unicode="&#x436;" horiz-adv-x="1595" 
d="M1585 0h-375l-243 420v-420h-338v420l-244 -420h-375l320 512l-299 512h375l223 -414v414h338v-414l223 414h375l-299 -512z" />
    <glyph glyph-name="uni0437" unicode="&#x437;" horiz-adv-x="933" 
d="M745 522q152 -80 152 -243q0 -136 -117 -223t-315 -87q-322 0 -445 246l267 156q47 -119 172 -119q42 0 71 18t29 52q0 63 -84 63h-123v266h107q76 0 76 62q0 65 -91 65q-104 0 -147 -110l-266 145q135 240 430 240q177 0 289 -89q110 -88 110 -219q0 -149 -115 -223z
" />
    <glyph glyph-name="uni0438" unicode="&#x438;" horiz-adv-x="1187" 
d="M827 1024h263v-1024h-332v479l-398 -479h-262v1024h332v-479z" />
    <glyph glyph-name="uni0439" unicode="&#x439;" horiz-adv-x="1187" 
d="M262 1135v286h662v-286h-662zM827 1024h263v-1024h-332v479l-398 -479h-262v1024h332v-479z" />
    <glyph glyph-name="uni043A" unicode="&#x43a;" horiz-adv-x="1110" 
d="M1110 0h-381l-291 436v-436h-340v1024h340v-428l264 428h394l-344 -512z" />
    <glyph glyph-name="uni043B" unicode="&#x43b;" horiz-adv-x="1150" 
d="M1053 1024v-1024h-340v698h-205v-274q0 -241 -120 -346t-368 -78v315q73 -21 111 20q37 40 37 138v551h885z" />
    <glyph glyph-name="uni043C" unicode="&#x43c;" horiz-adv-x="1327" 
d="M1229 1024v-1024h-328v494l-219 -340h-37l-217 338v-492h-330v1024h330l236 -369l237 369h328z" />
    <glyph glyph-name="uni043D" unicode="&#x43d;" horiz-adv-x="1177" 
d="M739 1024h340v-1024h-340v352h-301v-352h-340v1024h340v-352h301v352z" />
    <glyph glyph-name="uni043E" unicode="&#x43e;" horiz-adv-x="1193" 
d="M596 -29q-227 0 -387 157t-160 384t160 384t387 157q228 0 388 -157q159 -156 159 -384t-159 -384q-160 -157 -388 -157zM596 299q90 0 148 59q59 61 59 154t-59 154q-58 59 -148 59q-88 0 -146 -59q-59 -61 -59 -154t59 -154q58 -59 146 -59z" />
    <glyph glyph-name="uni043F" unicode="&#x43f;" horiz-adv-x="1177" 
d="M1079 1024v-1024h-340v702h-301v-702h-340v1024h981z" />
    <glyph glyph-name="uni0440" unicode="&#x440;" horiz-adv-x="1259" 
d="M729 1053q205 0 343 -155q138 -154 138 -386t-138 -386q-138 -155 -343 -155q-186 0 -291 123v-504h-340v1434h340v-94q105 123 291 123zM653 289q96 0 156 61q59 60 59 162t-59 162q-60 61 -156 61q-95 0 -155 -61q-60 -62 -60 -162t60 -162q60 -61 155 -61z" />
    <glyph glyph-name="uni0441" unicode="&#x441;" horiz-adv-x="1081" 
d="M594 -29q-233 0 -389 156t-156 385t156 385t389 156q150 0 275 -72t192 -193l-291 -167q-55 100 -178 100q-86 0 -143 -58q-58 -60 -58 -151t58 -151q57 -58 143 -58q126 0 178 103l291 -168q-67 -123 -192 -195t-275 -72z" />
    <glyph glyph-name="uni0442" unicode="&#x442;" horiz-adv-x="962" 
d="M946 1024v-326h-293v-698h-340v698h-297v326h930z" />
    <glyph glyph-name="uni0443" unicode="&#x443;" horiz-adv-x="1124" 
d="M748 1024h376l-346 -993q-159 -463 -622 -441v320q107 0 161 22q56 23 89 84l-406 1008h375l211 -594z" />
    <glyph glyph-name="uni0444" unicode="&#x444;" horiz-adv-x="1452" 
d="M1401 512q0 -203 -132 -347q-131 -143 -378 -181v-394h-332v394q-247 38 -378 181q-132 144 -132 347q0 202 132 346q130 142 378 180v396h332v-396q248 -38 378 -180q132 -144 132 -346zM891 307q172 46 172 205t-172 205v-410zM387 512q0 -156 172 -205v410
q-172 -49 -172 -205z" />
    <glyph glyph-name="uni0445" unicode="&#x445;" horiz-adv-x="1124" 
d="M1124 0h-385l-178 252l-178 -252h-383l371 522l-357 502h383l164 -231l164 231h385l-356 -502z" />
    <glyph glyph-name="uni0446" unicode="&#x446;" horiz-adv-x="1253" 
d="M1049 322h174v-596h-328v274h-797v1024h340v-702h271v702h340v-702z" />
    <glyph glyph-name="uni0447" unicode="&#x447;" horiz-adv-x="1112" 
d="M672 1024h342v-1024h-342v287q-106 -27 -205 -27q-185 0 -300 99q-116 99 -116 282v383h342v-324q0 -125 150 -125q67 0 129 21v428z" />
    <glyph glyph-name="uni0448" unicode="&#x448;" horiz-adv-x="1710" 
d="M1272 1024h340v-1024h-1514v1024h340v-702h250v702h336v-702h248v702z" />
    <glyph glyph-name="uni0449" unicode="&#x449;" horiz-adv-x="1765" 
d="M1581 322h152v-596h-326v274h-1309v1024h340v-702h234v702h336v-702h233v702h340v-702z" />
    <glyph glyph-name="uni044A" unicode="&#x44a;" horiz-adv-x="1193" 
d="M760 735q185 0 293 -99t108 -267q0 -172 -107 -270q-108 -99 -294 -99h-508v698h-252v326h594v-289h166zM739 285q43 0 66 22q24 23 24 62q0 37 -24 59q-25 23 -66 23h-145v-166h145z" />
    <glyph glyph-name="uni044B" unicode="&#x44b;" horiz-adv-x="1529" 
d="M606 735q185 0 293 -99q109 -100 109 -267q0 -171 -108 -270t-294 -99h-508v1024h340v-289h168zM1092 1024h340v-1024h-340v1024zM586 285q42 0 65 22q25 23 25 62q0 36 -25 59t-65 23h-148v-166h148z" />
    <glyph glyph-name="uni044C" unicode="&#x44c;" horiz-adv-x="1038" 
d="M606 735q185 0 293 -99q109 -100 109 -267q0 -171 -108 -270t-294 -99h-508v1024h340v-289h168zM586 285q42 0 65 22q25 23 25 62q0 36 -25 59t-65 23h-148v-166h148z" />
    <glyph glyph-name="uni044D" unicode="&#x44d;" horiz-adv-x="1083" 
d="M487 1053q238 0 392 -152q153 -152 153 -389q0 -238 -153 -389q-154 -152 -392 -152q-153 0 -278 72q-126 73 -193 195l279 159q18 -52 70 -86q49 -32 131 -32q119 0 182 94h-277v278h277q-63 94 -182 94q-156 0 -201 -116l-279 159q67 120 193 193q124 72 278 72z" />
    <glyph glyph-name="uni044E" unicode="&#x44e;" horiz-adv-x="1652" 
d="M1057 1053q227 0 387 -157t160 -384t-160 -384t-387 -157q-184 0 -323 106q-137 104 -187 275h-109v-352h-340v1024h340v-352h109q50 171 187 275q139 106 323 106zM1057 299q88 0 146 59q59 61 59 154t-59 154q-58 59 -146 59q-91 0 -149 -59t-58 -154t58 -154t149 -59z
" />
    <glyph glyph-name="uni044F" unicode="&#x44f;" horiz-adv-x="1089" 
d="M991 1024v-1024h-336v291h-47l-194 -291h-387l239 342q-88 49 -136 132q-48 82 -48 179q0 161 105 266t286 105h518zM510 737q-44 0 -70 -23t-26 -67q0 -41 26 -63q28 -23 70 -23h145v176h-145z" />
    <glyph glyph-name="uni0451" unicode="&#x451;" horiz-adv-x="1169" 
d="M395 1110q-67 0 -115 48q-49 49 -49 116t49 116q48 48 115 48q66 0 114 -48t48 -116t-48 -116t-114 -48zM793 1110q-66 0 -114 48t-48 116t48 116t114 48q67 0 115 -48t48 -116t-48 -116t-115 -48zM401 387q51 -125 230 -125q109 0 186 72l246 -172q-152 -191 -440 -191
q-261 0 -417 153q-157 154 -157 386q0 230 154 387q153 156 391 156q228 0 379 -154q149 -152 149 -385q0 -71 -14 -127h-707zM397 623h394q-40 143 -193 143q-158 0 -201 -143z" />
    <glyph glyph-name="uni0452" unicode="&#x452;" 
d="M743 1028q165 0 271 -114q106 -113 106 -326v-588q0 -241 -119 -348t-370 -92v315q77 -4 113 26t36 99v545q0 80 -43 122q-44 42 -112 42q-78 0 -122 -49t-44 -140v-520h-340v1104h-119v217h119v113h340v-113h276v-217h-276v-205q90 129 284 129z" />
    <glyph glyph-name="uni0453" unicode="&#x453;" horiz-adv-x="854" 
d="M782 1434l-237 -297h-324l164 297h397zM834 1024v-326h-396v-698h-340v1024h736z" />
    <glyph glyph-name="uni0454" unicode="&#x454;" horiz-adv-x="1083" 
d="M588 279q82 0 131 32q51 33 69 86l279 -159q-67 -122 -193 -195q-124 -72 -278 -72q-237 0 -391 152t-154 389t154 389t391 152q154 0 278 -72q126 -73 193 -193l-279 -159q-45 116 -200 116q-119 0 -182 -94h276v-278h-276q63 -94 182 -94z" />
    <glyph glyph-name="uni0455" unicode="&#x455;" horiz-adv-x="972" 
d="M424 725q0 -29 52 -47q57 -20 127 -35q78 -17 150 -46q75 -30 127 -101t52 -181q0 -176 -131 -260t-312 -84q-344 0 -458 244l297 150q39 -113 159 -113q93 0 93 55q0 29 -52 47q-59 21 -125 37q-67 17 -147 49q-73 30 -125 100q-51 69 -51 169q0 164 121 254t291 90
q302 0 421 -238l-286 -129q-45 88 -127 88q-76 0 -76 -49z" />
    <glyph glyph-name="uni0456" unicode="&#x456;" horiz-adv-x="536" 
d="M268 1108q-80 0 -138 58t-58 139q0 80 58 137t138 57t139 -57q58 -57 58 -137q0 -81 -58 -139t-139 -58zM98 0v1024h340v-1024h-340z" />
    <glyph glyph-name="uni0457" unicode="&#x457;" horiz-adv-x="536" 
d="M68 1096q-68 0 -116 48t-48 116q0 67 48 115t116 48q65 0 113 -48t48 -115q0 -68 -48 -116t-113 -48zM465 1096q-66 0 -114 48t-48 116q0 67 48 115t114 48q68 0 116 -48t48 -115q0 -68 -48 -116t-116 -48zM98 0v1024h340v-1024h-340z" />
    <glyph glyph-name="uni0458" unicode="&#x458;" horiz-adv-x="567" 
d="M299 1108q-80 0 -138 58q-59 59 -59 139t59 137t138 57t138 -57t59 -137t-59 -139q-58 -58 -138 -58zM129 0v1024h340v-1024q0 -241 -119 -348t-370 -92v315q77 -4 113 26t36 99z" />
    <glyph glyph-name="uni0459" unicode="&#x459;" horiz-adv-x="1591" 
d="M1190 715q165 0 268 -97t103 -260q0 -166 -104 -262q-103 -96 -267 -96h-494v698h-188v-274q0 -239 -120 -347t-368 -93v315q74 -11 111 33q37 43 37 141v551h870v-309h152zM1169 285q30 0 50 19t20 54q0 34 -20 53t-50 19h-131v-145h131z" />
    <glyph glyph-name="uni045A" unicode="&#x45a;" horiz-adv-x="1603" 
d="M1192 715q164 0 273 -97q108 -96 108 -260q0 -163 -109 -261q-107 -97 -272 -97h-494v403h-280v-403h-340v1024h340v-309h280v309h340v-309h154zM1169 285q32 0 52 19t20 54q0 34 -20 53t-52 19h-131v-145h131z" />
    <glyph glyph-name="uni045B" unicode="&#x45b;" 
d="M743 1028q165 0 271 -114q106 -113 106 -326v-588h-340v545q0 80 -43 122q-44 42 -112 42q-78 0 -122 -49t-44 -140v-520h-340v1100h-119v215h119v119h340v-119h276v-215h-276v-201q90 129 284 129z" />
    <glyph glyph-name="uni045C" unicode="&#x45c;" horiz-adv-x="1110" 
d="M905 1434l-237 -297h-324l164 297h397zM1110 0h-381l-291 436v-436h-340v1024h340v-428l264 428h394l-344 -512z" />
    <glyph glyph-name="uni045E" unicode="&#x45e;" horiz-adv-x="1124" 
d="M899 1421v-286h-661v286h661zM748 1024h376l-346 -993q-159 -463 -622 -441v320q107 0 161 22q56 23 89 84l-406 1008h375l211 -594z" />
    <glyph glyph-name="uni045F" unicode="&#x45f;" horiz-adv-x="1177" 
d="M739 1024h340v-1024h-325v-274h-328v274h-328v1024h340v-702h301v702z" />
    <glyph glyph-name="uni0490" unicode="&#x490;" horiz-adv-x="972" 
d="M596 1679h365v-600h-482v-1079h-366v1434h483v245z" />
    <glyph glyph-name="uni0491" unicode="&#x491;" horiz-adv-x="854" 
d="M508 1233h326v-535h-396v-698h-340v1024h410v209z" />
    <glyph glyph-name="Wgrave" unicode="&#x1e80;" horiz-adv-x="2056" 
d="M1288 1546l-164 297h-397l238 -297h323zM412 0l-402 1434h396l221 -904l256 904h288l256 -904l224 904h393l-399 -1434h-388l-229 809l-229 -809h-387z" />
    <glyph glyph-name="wgrave" unicode="&#x1e81;" horiz-adv-x="1634" 
d="M1012 1137h-324l-237 297h397zM1249 1024h361l-314 -1024h-331l-148 520l-147 -520h-332l-313 1024h360l135 -557l154 557h287l153 -557z" />
    <glyph glyph-name="Wacute" unicode="&#x1e82;" horiz-adv-x="2056" 
d="M891 1546h323l238 297h-397zM412 0l-402 1434h396l221 -904l256 904h288l256 -904l224 904h393l-399 -1434h-388l-229 809l-229 -809h-387z" />
    <glyph glyph-name="wacute" unicode="&#x1e83;" horiz-adv-x="1634" 
d="M1176 1434l-238 -297h-324l164 297h398zM1249 1024h361l-314 -1024h-331l-148 520l-147 -520h-332l-313 1024h360l135 -557l154 557h287l153 -557z" />
    <glyph glyph-name="Wdieresis" unicode="&#x1e84;" horiz-adv-x="2056" 
d="M895 1505q-68 0 -116 48t-48 116t48 116t116 48q66 0 114 -48t48 -116t-48 -116t-114 -48zM1292 1505q-65 0 -113 48q-49 49 -49 116t49 116q48 48 113 48q68 0 116 -48t48 -116t-48 -116t-116 -48zM412 0l-402 1434h396l221 -904l256 904h288l256 -904l224 904h393
l-399 -1434h-388l-229 809l-229 -809h-387z" />
    <glyph glyph-name="wdieresis" unicode="&#x1e85;" horiz-adv-x="1634" 
d="M618 1096q-67 0 -115 48t-48 116q0 67 48 115t115 48q66 0 114 -48t48 -115q0 -68 -48 -116t-114 -48zM1016 1096q-66 0 -114 48t-48 116q0 67 48 115t114 48q68 0 116 -48t48 -115q0 -68 -48 -116t-116 -48zM1249 1024h361l-314 -1024h-331l-148 520l-147 -520h-332
l-313 1024h360l135 -557l154 557h287l153 -557z" />
    <glyph glyph-name="Ygrave" unicode="&#x1ef2;" horiz-adv-x="1333" 
d="M860 1546h-323l-238 297h397zM1333 1434l-483 -883v-551h-367v547l-483 887h412l254 -531l256 531h411z" />
    <glyph glyph-name="ygrave" unicode="&#x1ef3;" horiz-adv-x="1124" 
d="M764 1137h-324l-237 297h397zM748 1024h376l-350 -1008q-83 -232 -231 -333q-152 -103 -387 -93v320q108 0 163 27q57 28 91 96l-410 991h381l207 -594z" />
    <glyph glyph-name="endash" unicode="&#x2013;" horiz-adv-x="1310" 
d="M113 455v323h1085v-323h-1085z" />
    <glyph glyph-name="emdash" unicode="&#x2014;" horiz-adv-x="1515" 
d="M113 455v323h1290v-323h-1290z" />
    <glyph glyph-name="quoteleft" unicode="&#x2018;" horiz-adv-x="618" 
d="M84 791l172 643h274l-71 -643h-375z" />
    <glyph glyph-name="quoteright" unicode="&#x2019;" horiz-adv-x="618" 
d="M535 1434l-173 -643h-274l72 643h375z" />
    <glyph glyph-name="quotesinglbase" unicode="&#x201a;" horiz-adv-x="618" 
d="M535 356l-173 -643h-274l72 643h375z" />
    <glyph glyph-name="quotedblleft" unicode="&#x201c;" horiz-adv-x="1075" 
d="M84 791l172 643h274l-71 -643h-375zM541 791l172 643h274l-72 -643h-374z" />
    <glyph glyph-name="quotedblright" unicode="&#x201d;" horiz-adv-x="1075" 
d="M535 1434l-173 -643h-274l72 643h375zM991 1434l-172 -643h-274l71 643h375z" />
    <glyph glyph-name="quotedblbase" unicode="&#x201e;" horiz-adv-x="1075" 
d="M535 356l-173 -643h-274l72 643h375zM991 356l-172 -643h-274l71 643h375z" />
    <glyph glyph-name="dagger" unicode="&#x2020;" horiz-adv-x="964" 
d="M891 1192v-324h-238v-868h-342v868h-239v324h239v242h342v-242h238z" />
    <glyph glyph-name="daggerdbl" unicode="&#x2021;" horiz-adv-x="964" 
d="M891 868h-238v-303h238v-323h-238v-242h-342v242h-239v323h239v303h-239v324h239v242h342v-242h238v-324z" />
    <glyph glyph-name="bullet" unicode="&#x2022;" horiz-adv-x="817" 
d="M412 381q-142 0 -241 99t-99 241q0 137 99 234q100 98 241 98q136 0 234 -98q97 -97 97 -234q0 -143 -97 -241q-98 -99 -234 -99z" />
    <glyph glyph-name="ellipsis" unicode="&#x2026;" horiz-adv-x="1613" 
d="M297 -29q-90 0 -153 63q-62 62 -62 150t63 151q62 62 152 62q88 0 150 -62q63 -63 63 -151q0 -87 -63 -150t-150 -63zM807 -29q-90 0 -153 63q-62 62 -62 150t63 151q62 62 152 62q88 0 150 -62q63 -63 63 -151q0 -87 -63 -150t-150 -63zM1319 -29q-90 0 -153 63
q-62 62 -62 150t63 151q62 62 152 62q88 0 150 -62q63 -63 63 -151q0 -87 -63 -150t-150 -63z" />
    <glyph glyph-name="perthousand" unicode="&#x2030;" horiz-adv-x="2498" 
d="M449 729q-161 0 -269 108t-108 261q0 154 108 260q107 106 269 106q160 0 266 -106t106 -260q0 -156 -107 -262q-109 -107 -265 -107zM285 225l942 1024l143 -82l-944 -1022zM446 989q47 0 77 32q30 31 30 77t-30 76t-77 30q-44 0 -74 -30t-30 -76q0 -48 30 -78
q31 -31 74 -31zM1241 -29q-160 0 -269 107q-108 107 -108 260q0 155 108 262q109 107 269 107q159 0 266 -108q107 -109 107 -261q0 -154 -108 -260q-109 -107 -265 -107zM2052 -29q-160 0 -269 107q-108 107 -108 260q0 155 108 262q109 107 269 107t266 -108
q107 -109 107 -261q0 -154 -108 -260q-109 -107 -265 -107zM1239 231q45 0 75 32q29 30 29 75q0 49 -29 78q-30 30 -75 30t-75 -30q-29 -29 -29 -78q0 -47 29 -76q31 -31 75 -31zM2050 231q46 0 76 32q31 33 31 75q0 47 -31 78q-30 30 -76 30q-45 0 -75 -30q-29 -29 -29 -78
q0 -47 29 -76q31 -31 75 -31z" />
    <glyph glyph-name="guilsinglleft" unicode="&#x2039;" horiz-adv-x="745" 
d="M633 1032l-230 -399l230 -400h-289l-231 400l231 399h289z" />
    <glyph glyph-name="guilsinglright" unicode="&#x203a;" horiz-adv-x="745" 
d="M401 1032l232 -399l-232 -400h-288l229 400l-229 399h288z" />
    <glyph glyph-name="fraction" unicode="&#x2044;" horiz-adv-x="368" 
d="M-113 0h-233l827 1434h234z" />
    <glyph glyph-name="Euro" unicode="&#x20ac;" horiz-adv-x="1288" 
d="M948 475l307 -176q-157 -330 -503 -330q-234 0 -388 146q-153 146 -198 397h-139v172h123v33v39h-123v172h141q45 249 198 393q152 143 386 143q340 0 493 -313l-305 -176q-67 133 -188 133q-160 0 -211 -180h340v-172h-367v-39v-33h367v-172h-342q51 -186 213 -186
q123 0 196 149z" />
    <glyph glyph-name="uni20BD" unicode="&#x20bd;" horiz-adv-x="1249" 
d="M711 473h-191v-82h420v-203h-420v-188h-366v188h-134v203h134v82h-134v326h134v635h557q216 0 364 -136t148 -346q0 -223 -145 -351t-367 -128zM520 1085v-286h191q63 0 104 39t41 104q0 66 -41 105q-39 38 -104 38h-191z" />
    <glyph glyph-name="uni2116" unicode="&#x2116;" horiz-adv-x="2160" 
d="M1747 750q-156 0 -260 104q-105 105 -105 252q0 151 104 255q103 103 261 103q156 0 259 -104t103 -254t-102 -253t-260 -103zM903 1434h365v-1434h-283l-506 721v-721h-366v1434h284l506 -721v721zM1747 1014q41 0 65 25q25 27 25 67t-26 68q-25 26 -64 26
q-42 0 -67 -26t-25 -68t25 -67t67 -25zM1413 340v326h670v-326h-670z" />
    <glyph glyph-name="trademark" unicode="&#x2122;" horiz-adv-x="985" 
d="M420 1434v-142h-105v-268h-149v268h-105v142h359zM780 1434h144v-410h-144v195l-84 -127h-14l-82 125v-193h-143v410h143l90 -138z" />
    <glyph glyph-name="estimated" unicode="&#x212e;" horiz-adv-x="1597" 
d="M799 1454q335 0 546 -213q211 -212 211 -524q0 -31 -30 -31h-1147q-31 0 -31 -31v-393q0 -24 14 -39q172 -182 478 -182q297 0 473 199q15 18 37 18h75q21 0 27 -12q6 -13 -8 -27q-223 -239 -604 -239q-362 0 -580 211q-219 211 -219 526q0 310 212 524q211 213 546 213z
M1249 1171q0 24 -14 39q-173 183 -436 183q-265 0 -437 -183q-14 -15 -14 -39v-393q0 -30 31 -30h840q30 0 30 30v393z" />
    <glyph glyph-name="oneeighth" unicode="&#x215b;" horiz-adv-x="1648" 
d="M223 614v545l-162 -43l-61 223l260 95h232v-820h-269zM1047 1434h233l-827 -1434h-234zM1501 428q117 -69 117 -203q0 -116 -86 -185t-240 -69q-153 0 -240 69t-87 185q0 134 118 203q-90 67 -90 170q0 115 85 182q86 68 214 68t213 -68q84 -68 84 -182q0 -104 -88 -170z
M1292 631q-69 0 -69 -58q0 -55 69 -55q68 0 68 55q0 58 -68 58zM1292 190q36 0 58 20q20 19 20 50q0 32 -20 49q-22 19 -58 19q-78 0 -78 -68q0 -70 78 -70z" />
    <glyph glyph-name="threeeighths" unicode="&#x215c;" horiz-adv-x="1769" 
d="M668 870q0 -137 -89 -211q-88 -73 -241 -73q-246 0 -332 192l221 127q30 -88 111 -88q65 0 65 53q0 52 -65 52h-57l-95 139l115 135h-254v238h586v-179l-133 -155q168 -62 168 -230zM1167 1434h234l-828 -1434h-233zM1622 428q117 -69 117 -203q0 -116 -86 -185
q-85 -69 -240 -69q-154 0 -241 69t-87 185q0 134 119 203q-90 67 -90 170q0 115 85 182q86 68 214 68t213 -68q84 -68 84 -182q0 -104 -88 -170zM1413 631q-70 0 -70 -58q0 -55 70 -55q68 0 68 55q0 58 -68 58zM1413 190q35 0 57 20q21 20 21 50q0 31 -21 49q-22 19 -57 19
q-78 0 -78 -68q0 -70 78 -70z" />
    <glyph glyph-name="fiveeighths" unicode="&#x215d;" horiz-adv-x="1761" 
d="M653 860q0 -137 -86 -206q-84 -68 -225 -68q-246 0 -332 192l219 115q30 -84 107 -84q72 0 72 55q0 56 -70 56h-272l34 514h516v-238h-290l-7 -68h33q139 0 220 -66t81 -202zM1159 1434h234l-828 -1434h-233zM1614 428q117 -69 117 -203q0 -116 -86 -185t-240 -69
t-241 69t-87 185q0 134 119 203q-90 67 -90 170q0 115 85 182q86 68 214 68t213 -68q84 -68 84 -182q0 -104 -88 -170zM1405 631q-70 0 -70 -58q0 -55 70 -55q68 0 68 55q0 58 -68 58zM1405 190q35 0 57 20q21 20 21 50q0 31 -21 49q-22 19 -57 19q-78 0 -78 -68
q0 -70 78 -70z" />
    <glyph glyph-name="seveneighths" unicode="&#x215e;" horiz-adv-x="1701" 
d="M360 614h-276l219 582h-303v238h592v-203zM1100 1434h233l-827 -1434h-234zM1554 428q117 -69 117 -203q0 -116 -86 -185q-85 -69 -239 -69t-241 69t-87 185q0 134 119 203q-90 67 -90 170q0 115 85 182q86 68 214 68t213 -68q83 -67 83 -182q0 -104 -88 -170zM1346 631
q-70 0 -70 -58q0 -55 70 -55q67 0 67 55q0 58 -67 58zM1346 190q35 0 57 20q20 19 20 50q0 32 -20 49q-22 19 -57 19q-78 0 -78 -68q0 -70 78 -70z" />
    <glyph glyph-name="arrowleft" unicode="&#x2190;" horiz-adv-x="1607" 
d="M1536 879v-324h-858l452 -453h-444l-614 615l614 614h444l-452 -452h858z" />
    <glyph glyph-name="arrowup" unicode="&#x2191;" horiz-adv-x="1374" 
d="M1300 819v-444l-442 442v-817h-342v819l-444 -444v444l614 615z" />
    <glyph glyph-name="arrowright" unicode="&#x2192;" horiz-adv-x="1607" 
d="M922 1331l614 -614l-614 -615h-445l453 453h-858v324h858l-453 452h445z" />
    <glyph glyph-name="arrowdown" unicode="&#x2193;" horiz-adv-x="1374" 
d="M858 616l442 443v-445l-614 -614l-614 614v445l444 -445v820h342v-818z" />
    <glyph glyph-name="arrowboth" unicode="&#x2194;" horiz-adv-x="2328" 
d="M1673 1300l584 -583l-584 -584h-438l418 422h-979l422 -422h-441l-583 584l583 583h441l-422 -421h981l-420 421h438z" />
    <glyph glyph-name="arrowupdn" unicode="&#x2195;" horiz-adv-x="1310" 
d="M1239 776l-414 414v-946l414 413v-440l-584 -584l-583 584v440l413 -413v946l-413 -414v441l583 583l584 -583v-441z" />
    <glyph glyph-name="uni2196" unicode="&#x2196;" horiz-adv-x="1335" 
d="M1264 328l-236 -236l-643 641v-631l-313 314v868h868l313 -313h-632z" />
    <glyph glyph-name="uni2197" unicode="&#x2197;" horiz-adv-x="1335" 
d="M395 1284h869v-868l-314 -314v631l-643 -641l-235 236l643 643h-633z" />
    <glyph glyph-name="uni2198" unicode="&#x2198;" horiz-adv-x="1335" 
d="M950 1315l314 -314v-868h-869l-313 313h631l-641 641l235 236l643 -641v633z" />
    <glyph glyph-name="uni2199" unicode="&#x2199;" horiz-adv-x="1335" 
d="M1264 1087l-641 -641h630l-313 -313h-868v868l313 314v-633l643 641z" />
    <glyph glyph-name="partialdiff" unicode="&#x2202;" horiz-adv-x="1196" 
d="M492 1464q256 0 439 -208t183 -539q0 -363 -165 -555q-166 -193 -429 -193q-211 0 -334 126t-123 315q0 212 127 346q128 135 340 135q120 0 228 -53q-46 301 -309 307q-120 2 -236 -64v310q113 73 279 73zM541 285q174 0 217 262q-82 49 -183 49q-73 0 -122 -46
q-50 -47 -50 -126q0 -64 39 -101q40 -38 99 -38z" />
    <glyph glyph-name="emptyset" unicode="&#x2205;" horiz-adv-x="1646" 
d="M1352 1237q213 -219 213 -520q0 -307 -217 -524q-218 -218 -525 -218q-193 0 -362 95l-84 -111h-264l182 238q-213 219 -213 520q0 307 217 524t524 217q196 0 363 -94l84 111h264zM315 717q0 -191 121 -334l608 797q-107 49 -221 49q-211 0 -359 -150
q-149 -151 -149 -362zM823 205q212 0 360 149t148 363q0 191 -121 334l-608 -797q107 -49 221 -49z" />
    <glyph glyph-name="product" unicode="&#x220f;" horiz-adv-x="1292" 
d="M113 -410v1844h1065v-1844h-340v1518h-383v-1518h-342z" />
    <glyph glyph-name="summation" unicode="&#x2211;" horiz-adv-x="1148" 
d="M51 -410v285l402 657l-371 615v287h962v-334h-544l340 -568l-369 -608h604v-334h-1024z" />
    <glyph glyph-name="minus" unicode="&#x2212;" horiz-adv-x="1146" 
d="M84 555v324h979v-324h-979z" />
    <glyph glyph-name="radical" unicode="&#x221a;" horiz-adv-x="1419" 
d="M518 0l-231 367h-224v323h418l172 -299l418 1247h348l-573 -1638h-328z" />
    <glyph glyph-name="infinity" unicode="&#x221e;" horiz-adv-x="1677" 
d="M1196 1110q171 0 286 -110q113 -109 113 -283q0 -175 -113 -284t-286 -109q-183 0 -356 176q-173 -176 -357 -176q-174 0 -286 109q-113 110 -113 284q0 173 113 283t286 110q184 0 357 -176q173 176 356 176zM516 635q72 0 141 82q-69 82 -141 82q-36 0 -62 -23t-26 -59
q0 -37 26 -60q25 -22 62 -22zM1163 635q39 0 62 22q24 23 24 60t-24 59q-25 23 -62 23q-72 0 -141 -82q69 -82 141 -82z" />
    <glyph glyph-name="integral" unicode="&#x222b;" horiz-adv-x="944" 
d="M0 -418v336q59 -32 125 -4q65 28 80 111l182 1067q39 230 192 312q154 83 365 34v-336q-59 33 -126 4t-79 -111l-182 -1067q-39 -230 -191 -312q-154 -83 -366 -34z" />
    <glyph glyph-name="approxequal" unicode="&#x2248;" horiz-adv-x="1163" 
d="M594 760q-96 41 -162 50q-68 9 -105 -3q-36 -11 -91 -43l-164 78q51 224 184 294t313 -12q129 -61 187 -56q56 5 80 93l256 -119q-43 -213 -181 -289q-137 -75 -317 7zM328 268l-256 119q44 217 180 291q138 74 317 -8q98 -42 162 -49q71 -8 108 3q42 13 91 44l162 -80
q-51 -223 -185 -294t-313 11q-129 61 -186 56q-56 -5 -80 -93z" />
    <glyph glyph-name="notequal" unicode="&#x2260;" horiz-adv-x="1046" 
d="M973 778h-336l-53 -123h389v-325h-535l-100 -228h-174l100 228h-192v325h336l55 123h-391v326h534l101 227h176l-101 -227h191v-326z" />
    <glyph glyph-name="lessequal" unicode="&#x2264;" horiz-adv-x="1067" 
d="M995 1401v-354l-573 -142l573 -141v-354l-921 323v344zM74 43v326h921v-326h-921z" />
    <glyph glyph-name="greaterequal" unicode="&#x2265;" horiz-adv-x="1067" 
d="M72 1401l921 -324v-344l-921 -323v354l573 141l-573 142v354zM72 43v326h921v-326h-921z" />
    <glyph glyph-name="lozenge" unicode="&#x25ca;" horiz-adv-x="1204" 
d="M453 0l-381 717l381 717h299l381 -717l-381 -717h-299zM602 424l156 293l-156 293l-156 -293z" />
    <glyph glyph-name="i.loclTRK" horiz-adv-x="536" 
d="M266 1112q-76 0 -130 54t-54 128q0 76 54 130q55 55 130 55q73 0 128 -55t55 -130q0 -73 -55 -128q-54 -54 -128 -54zM98 0v1024h340v-1024h-340z" />
    <glyph glyph-name="f_f_j" horiz-adv-x="1751" 
d="M1653 1024v-1024q0 -242 -120 -348q-121 -107 -372 -92v315q77 -4 114 26q36 30 36 99v698h-232v-698h-342v698h-237v-698h-340v698h-129v326h129q0 221 130 338t386 102v-315q-176 12 -176 -125h237v20q0 441 516 441q132 0 267 -31v-297q-138 19 -252 19
q-95 0 -142 -29t-47 -103v-20h574z" />
    <glyph glyph-name="f_j" horiz-adv-x="1171" 
d="M1073 1024v-1024q0 -241 -119 -348t-370 -92v315q77 -4 113 26t36 99v698h-233v-698h-340v698h-129v326h129q0 440 516 440q135 0 266 -30v-297q-134 18 -252 18q-93 0 -142 -29q-48 -28 -48 -102h573z" />
    <glyph glyph-name="uni0414.loclBGR" horiz-adv-x="1515" 
d="M1327 354h168v-628h-367v274h-741v-274h-367v628h168l351 1080h438zM567 354h381l-190 670z" />
    <glyph glyph-name="uni041B.loclBGR" horiz-adv-x="1361" 
d="M463 1434h436l463 -1434h-401l-281 987l-279 -987h-401z" />
    <glyph glyph-name="uni0424.loclBGR" horiz-adv-x="1779" 
d="M1722 717q0 -296 -178 -489q-179 -194 -481 -240v-193h-346v193q-303 45 -481 239q-179 196 -179 490q0 293 179 489q179 195 481 240v192h346v-192q301 -46 481 -241q178 -193 178 -488zM422 717q0 -320 295 -387v774q-295 -67 -295 -387zM1063 332q293 66 293 385
t-293 385v-770z" />
    <glyph glyph-name="uni0414.ss01" horiz-adv-x="1458" 
d="M1268 354h153v-354h-1401v354h152q98 156 98 455v625h998v-1080zM553 354h350v740h-268v-289q0 -288 -82 -451z" />
    <glyph glyph-name="uni0426.ss01" horiz-adv-x="1437" 
d="M1237 354h164v-354h-1288v1434h376v-1080h373v1080h375v-1080z" />
    <glyph glyph-name="uni0429.ss01" horiz-adv-x="2031" 
d="M1831 354h164v-354h-1882v1434h366v-1080h309v1080h367v-1080h309v1080h367v-1080z" />
    <glyph glyph-name="uni0414.loclBGR.ss01" horiz-adv-x="1515" 
d="M1327 354h168v-354h-1475v354h168l351 1080h438zM567 354h381l-190 670z" />
    <glyph glyph-name="uni0432.loclBGR" horiz-adv-x="1150" 
d="M885 838q215 -105 215 -392q0 -223 -134 -349t-372 -126q-224 0 -360 135t-136 361v489q0 229 131 368q130 138 351 138q191 0 304 -100t113 -270q0 -136 -112 -254zM569 1147q-59 0 -95 -47q-36 -46 -36 -129v-113l41 8q77 14 96 15q91 77 91 159q0 107 -97 107z
M600 295q77 0 118 40q42 41 42 111q0 87 -68 122q-67 34 -184 10l-70 -15v-96q0 -78 44 -125t118 -47z" />
    <glyph glyph-name="uni0433.loclBGR" horiz-adv-x="968" 
d="M657 365l285 -150q-113 -244 -457 -244q-179 0 -307 84q-127 84 -127 260q0 93 37 158q38 66 92 97q62 35 120 54q61 20 120 31q56 11 92 28q37 18 37 42q0 49 -76 49q-84 0 -127 -88l-285 129q119 238 424 238q168 0 288 -90t120 -254q0 -101 -50 -171q-50 -69 -122 -98
q-70 -28 -143 -46q-74 -18 -122 -36q-50 -18 -50 -49q0 -57 90 -57q117 0 161 113z" />
    <glyph glyph-name="uni0434.loclBGR" horiz-adv-x="1265" 
d="M831 1024h336v-983q0 -125 -46 -218q-47 -96 -124 -152q-78 -57 -171 -84t-197 -27q-169 0 -303 63q-133 63 -201 187l283 163q73 -116 217 -116q91 0 149 47q57 46 57 137v98q-105 -127 -286 -127q-211 0 -349 152q-139 153 -139 368q0 216 139 369q138 152 349 152
q181 0 286 -127v98zM614 319q96 0 157 61q60 60 60 152q0 93 -60 153t-157 60q-96 0 -156 -60q-61 -61 -61 -153q0 -91 61 -152t156 -61z" />
    <glyph glyph-name="uni0436.loclBGR" horiz-adv-x="1595" 
d="M1585 0h-375l-243 420v-420h-338v420l-244 -420h-375l320 512l-299 512h375l223 -412v822h338v-822l223 412h375l-299 -512z" />
    <glyph glyph-name="uni0438.loclBGR" horiz-adv-x="1185" 
d="M748 1024h339v-1024h-339v102q-92 -131 -285 -131q-167 0 -272 114t-105 327v612h340v-569q0 -81 42 -121q43 -41 112 -41q80 0 123 48q45 50 45 138v545z" />
    <glyph glyph-name="uni0439.loclBGR" horiz-adv-x="1185" 
d="M918 1421v-286h-662v286h662zM748 1024h339v-1024h-339v102q-92 -131 -285 -131q-167 0 -272 114t-105 327v612h340v-569q0 -81 42 -121q43 -41 112 -41q80 0 123 48q45 50 45 138v545z" />
    <glyph glyph-name="uni043A.loclBGR" horiz-adv-x="1110" 
d="M1110 0h-381l-291 436v-436h-340v1434h340v-838l264 428h394l-344 -512z" />
    <glyph glyph-name="uni043B.loclBGR" horiz-adv-x="1134" 
d="M1135 0h-377l-191 588l-190 -588h-377l383 1024h369z" />
    <glyph glyph-name="uni043F.loclBGR" horiz-adv-x="1185" 
d="M723 1053q166 0 271 -114q106 -115 106 -327v-612h-340v569q0 81 -42 121q-43 41 -112 41q-80 0 -124 -48q-44 -49 -44 -138v-545h-340v1024h340v-102q92 131 285 131z" />
    <glyph glyph-name="uni0442.loclBGR" horiz-adv-x="1744" 
d="M1274 1053q178 0 281 -114q104 -115 104 -312v-627h-342v588q0 143 -127 143q-70 0 -106 -46q-35 -45 -35 -126v-559h-340v588q0 143 -129 143q-70 0 -106 -46q-36 -47 -36 -126v-559h-340v1024h340v-96q95 125 277 125q176 0 262 -131q107 131 297 131z" />
    <glyph glyph-name="uni0446.loclBGR" horiz-adv-x="1273" 
d="M1149 311h92v-585h-321v303q-74 30 -119 96q-106 -154 -338 -154q-163 0 -270 114q-107 115 -107 327v612h340v-569q0 -81 42 -121q43 -41 114 -41q78 0 121 48q45 50 45 138v545h339v-651q0 -62 62 -62z" />
    <glyph glyph-name="uni0448.loclBGR" horiz-adv-x="1744" 
d="M1307 1024h340v-1024h-340v96q-95 -125 -277 -125q-176 0 -262 131q-107 -131 -297 -131q-179 0 -282 114q-103 113 -103 312v627h342v-588q0 -143 127 -143q69 0 105 46q36 47 36 126v559h340v-588q0 -143 129 -143q70 0 106 46q36 47 36 126v559z" />
    <glyph glyph-name="uni0449.loclBGR" horiz-adv-x="1830" 
d="M1708 311h92v-585h-323v303q-69 27 -113 88q-107 -146 -315 -146q-191 0 -279 135q-106 -135 -299 -135q-179 0 -282 114q-103 113 -103 312v627h340v-588q0 -68 33 -105q33 -38 94 -38q69 0 106 46t37 126v559h340v-588q0 -143 127 -143q70 0 106 46q36 47 36 126v559
h342v-651q0 -62 61 -62z" />
    <glyph glyph-name="uni044C.loclBGR" horiz-adv-x="1017" 
d="M557 764q208 0 319 -106q109 -105 109 -287q0 -176 -122 -289t-326 -113q-214 0 -333 113q-118 112 -118 309v633h332v-260h139zM537 281q54 0 85 28t31 70q0 98 -106 98h-129v-82q0 -54 32 -84t87 -30z" />
    <glyph glyph-name="uni044A.loclBGR" horiz-adv-x="1183" 
d="M723 764q209 0 320 -106q110 -105 110 -287q0 -177 -123 -289q-124 -113 -328 -113q-213 0 -332 113q-118 112 -118 309v318h-252v315h584v-260h139zM702 281q54 0 86 28q33 29 33 70q0 98 -108 98h-129v-82q0 -54 31 -84t87 -30z" />
    <glyph glyph-name="uni044E.loclBGR" horiz-adv-x="1652" 
d="M1057 1053q227 0 387 -157t160 -384t-160 -384t-387 -157q-184 0 -323 106q-137 104 -187 275h-109v-352h-340v1434h340v-762h109q50 171 187 275q139 106 323 106zM1057 299q88 0 146 59q59 61 59 154t-59 154q-58 59 -146 59q-91 0 -149 -59t-58 -154t58 -154t149 -59z
" />
    <glyph glyph-name="zero.sinf" horiz-adv-x="837" 
d="M418 -356q-173 0 -277 117t-104 321q0 203 104 320q105 118 277 118t277 -118q106 -120 106 -320q0 -201 -106 -321q-104 -117 -277 -117zM418 -88q104 0 104 170t-104 170q-105 0 -105 -170t105 -170z" />
    <glyph glyph-name="one.sinf" horiz-adv-x="569" 
d="M260 492h232v-820h-269v545l-162 -43l-61 223z" />
    <glyph glyph-name="two.sinf" horiz-adv-x="718" 
d="M45 -328v183l293 284q59 59 59 99q0 45 -53 45q-55 0 -94 -90l-219 122q96 205 323 205q128 0 219 -74t91 -190q0 -128 -144 -262l-86 -82h238v-240h-627z" />
    <glyph glyph-name="three.sinf" horiz-adv-x="698" 
d="M500 158q168 -62 168 -230q0 -137 -89 -211q-88 -73 -241 -73q-246 0 -332 192l221 127q30 -88 111 -88q65 0 65 53q0 52 -65 52h-57l-95 139l115 135h-254v238h586v-179z" />
    <glyph glyph-name="four.sinf" horiz-adv-x="741" 
d="M715 23v-236h-72v-115h-250v115h-377v236l238 469h283l-228 -469h84v129h250v-129h72z" />
    <glyph glyph-name="five.sinf" horiz-adv-x="686" 
d="M352 186q139 0 220 -66t81 -202q0 -137 -86 -206q-84 -68 -225 -68q-246 0 -332 192l219 115q30 -84 107 -84q72 0 72 55t-70 55h-272l34 515h516v-238h-290l-7 -68h33z" />
    <glyph glyph-name="six.sinf" horiz-adv-x="702" 
d="M424 231q117 -21 184 -98q68 -79 68 -192q0 -133 -88 -215t-238 -82q-146 0 -235 83q-88 82 -88 214q0 87 41 157l239 394h275zM350 -135q78 0 78 76q0 73 -78 73q-76 0 -76 -73q0 -76 76 -76z" />
    <glyph glyph-name="seven.sinf" horiz-adv-x="618" 
d="M0 492h592v-203l-232 -617h-276l219 582h-303v238z" />
    <glyph glyph-name="eight.sinf" horiz-adv-x="714" 
d="M567 100q117 -69 117 -202q0 -117 -86 -186q-84 -68 -240 -68q-154 0 -240 68q-87 69 -87 186q0 133 119 202q-91 68 -91 170q0 116 85 183t214 67q130 0 213 -67q84 -67 84 -183q0 -104 -88 -170zM358 303q-69 0 -69 -57q0 -56 69 -56q68 0 68 56q0 57 -68 57zM358 -137
q38 0 58 19t20 50q0 33 -20 50q-21 18 -58 18q-77 0 -77 -68q0 -69 77 -69z" />
    <glyph glyph-name="nine.sinf" horiz-adv-x="702" 
d="M676 223q0 -87 -41 -157l-240 -394h-274l158 260q-117 18 -185 98q-67 79 -67 193q0 132 88 214q89 83 235 83q150 0 238 -82t88 -215zM350 299q-76 0 -76 -76q0 -73 76 -73q78 0 78 73q0 76 -78 76z" />
    <glyph glyph-name="zero.tf" 
d="M604 -31q-281 0 -437 204q-157 205 -157 544t157 544q155 203 437 203q280 0 435 -203q157 -205 157 -544t-157 -544q-156 -204 -435 -204zM604 326q227 0 227 391t-227 391t-227 -391t227 -391z" />
    <glyph glyph-name="one.tf" 
d="M813 354h363v-354h-1125v354h398v695l-252 -64l-86 309l387 140h315v-1080z" />
    <glyph glyph-name="two.tf" 
d="M63 0v266l537 484q145 130 145 223q0 56 -39 95q-40 40 -116 40q-142 0 -225 -174l-314 182q73 172 217 260q143 88 324 88q222 0 371 -130t149 -343q0 -127 -60 -230q-59 -102 -186 -218l-209 -189h480v-354h-1074z" />
    <glyph glyph-name="three.tf" 
d="M836 862q149 -44 233 -146q86 -104 86 -259q0 -236 -151 -362t-396 -126q-207 0 -357 90q-151 90 -214 271l317 182q62 -186 244 -186q193 0 193 139t-197 139h-70l-147 215l235 264h-522v351h993v-289z" />
    <glyph glyph-name="four.tf" 
d="M1176 553v-334h-144v-219h-364v219h-658v334l447 881h405l-448 -881h254v268h364v-268h144z" />
    <glyph glyph-name="five.tf" 
d="M625 930q243 0 390 -120q146 -119 146 -355q0 -232 -155 -359t-398 -127q-202 0 -351 87t-216 261l319 179q57 -170 244 -170q191 0 191 133q0 131 -191 131h-483l59 844h899v-351h-563l-12 -153h121z" />
    <glyph glyph-name="six.tf" 
d="M684 997q231 -23 360 -161q132 -141 132 -351q0 -228 -155 -372t-417 -144q-264 0 -419 143q-154 142 -154 373q0 187 102 318l440 631h416zM604 305q96 0 152 47q55 46 55 133q0 88 -56 135q-57 48 -151 48q-96 0 -151 -48q-56 -48 -56 -135q0 -86 56 -133t151 -47z" />
    <glyph glyph-name="seven.tf" 
d="M41 1434h1104v-304l-508 -1130h-397l483 1079h-682v355z" />
    <glyph glyph-name="eight.tf" 
d="M973 748q203 -122 203 -345q0 -198 -150 -315t-422 -117q-273 0 -423 117t-150 315q0 227 202 345q-153 106 -153 288q0 202 147 314q146 112 377 112q229 0 375 -113q147 -114 147 -313q0 -182 -153 -288zM604 1130q-85 0 -130 -32q-46 -33 -46 -90t46 -90
q47 -33 130 -33q82 0 129 33t47 90q0 54 -47 89q-44 33 -129 33zM604 307q205 0 205 148q0 69 -52 109t-153 40t-153 -40q-54 -42 -54 -109q0 -148 207 -148z" />
    <glyph glyph-name="nine.tf" 
d="M1176 948q0 -169 -86 -297l-457 -651h-416l305 436q-230 22 -360 162q-131 140 -131 350q0 232 154 374t419 142q266 0 418 -142q154 -143 154 -374zM397 948q0 -86 57 -134t150 -48q94 0 151 48q56 47 56 134t-55 133q-56 47 -152 47q-95 0 -151 -47t-56 -133z" />
    <glyph glyph-name="zero.dnom" horiz-adv-x="837" 
d="M418 -29q-172 0 -277 118q-104 117 -104 321q0 203 104 320q105 118 277 118t277 -118q106 -120 106 -320q0 -201 -106 -321q-105 -118 -277 -118zM418 240q104 0 104 170t-104 170q-105 0 -105 -170t105 -170z" />
    <glyph glyph-name="one.dnom" horiz-adv-x="565" 
d="M260 819h232v-819h-269v545l-162 -43l-61 223z" />
    <glyph glyph-name="two.dnom" horiz-adv-x="729" 
d="M45 0v182l293 285q59 59 59 98q0 45 -53 45q-55 0 -94 -90l-219 123q96 205 323 205q128 0 219 -74t91 -190q0 -128 -144 -262l-86 -82h238v-240h-627z" />
    <glyph glyph-name="three.dnom" horiz-adv-x="686" 
d="M500 485q168 -61 168 -229q0 -137 -89 -211t-241 -74q-246 0 -332 193l221 127q30 -88 111 -88q65 0 65 53q0 51 -65 51h-57l-95 139l115 136h-254v237h586v-178z" />
    <glyph glyph-name="four.dnom" horiz-adv-x="741" 
d="M715 350v-235h-72v-115h-250v115h-377v235l238 469h283l-228 -469h84v129h250v-129h72z" />
    <glyph glyph-name="five.dnom" horiz-adv-x="677" 
d="M352 514q138 0 220 -67q81 -66 81 -201q0 -137 -86 -206q-85 -69 -225 -69q-246 0 -332 193l219 115q30 -84 107 -84q72 0 72 55t-70 55h-272l34 514h516v-237h-290l-7 -68h33z" />
    <glyph glyph-name="six.dnom" horiz-adv-x="702" 
d="M424 559q117 -21 184 -98q68 -79 68 -193q0 -133 -88 -215t-238 -82q-146 0 -235 83q-88 82 -88 214q0 88 41 158l239 393h275zM350 193q78 0 78 75q0 74 -78 74q-76 0 -76 -74q0 -75 76 -75z" />
    <glyph glyph-name="seven.dnom" horiz-adv-x="618" 
d="M0 819h592v-203l-232 -616h-276l219 582h-303v237z" />
    <glyph glyph-name="eight.dnom" horiz-adv-x="714" 
d="M567 428q117 -69 117 -203q0 -116 -86 -185t-240 -69q-153 0 -240 69t-87 185q0 134 119 203q-91 68 -91 170q0 115 85 182q86 68 214 68t213 -68q84 -68 84 -182q0 -104 -88 -170zM358 631q-69 0 -69 -58q0 -55 69 -55q68 0 68 55q0 58 -68 58zM358 190q36 0 58 20
q20 19 20 50q0 32 -20 49q-22 19 -58 19q-77 0 -77 -68q0 -70 77 -70z" />
    <glyph glyph-name="nine.dnom" horiz-adv-x="702" 
d="M672 551q0 -88 -41 -158l-240 -393h-274l157 260q-117 18 -184 97t-67 194q0 132 88 214q89 83 235 83q150 0 238 -82t88 -215zM346 627q-76 0 -76 -76q0 -74 76 -74q78 0 78 74q0 76 -78 76z" />
    <glyph glyph-name="zero.numr" horiz-adv-x="837" 
d="M418 586q-173 0 -277 117t-104 321t104 321t277 117t277 -117q106 -120 106 -321t-106 -321q-104 -117 -277 -117zM418 854q104 0 104 170t-104 170q-105 0 -105 -170t105 -170z" />
    <glyph glyph-name="one.numr" horiz-adv-x="565" 
d="M260 1434h232v-820h-269v545l-162 -43l-61 223z" />
    <glyph glyph-name="two.numr" horiz-adv-x="729" 
d="M45 614v183l293 284q59 59 59 99q0 45 -53 45q-55 0 -94 -90l-219 122q96 205 323 205q130 0 219 -73q91 -74 91 -191q0 -128 -144 -262l-86 -82h238v-240h-627z" />
    <glyph glyph-name="three.numr" horiz-adv-x="686" 
d="M500 1100q168 -62 168 -230q0 -137 -89 -211q-88 -73 -241 -73q-246 0 -332 192l221 127q30 -88 111 -88q65 0 65 53q0 52 -65 52h-57l-95 139l115 135h-254v238h586v-179z" />
    <glyph glyph-name="four.numr" horiz-adv-x="741" 
d="M715 965v-236h-72v-115h-250v115h-377v236l238 469h283l-228 -469h84v129h250v-129h72z" />
    <glyph glyph-name="five.numr" horiz-adv-x="677" 
d="M352 1128q139 0 220 -66t81 -202q0 -137 -86 -206q-84 -68 -225 -68q-246 0 -332 192l219 115q30 -84 107 -84q72 0 72 55q0 56 -70 56h-272l34 514h516v-238h-290l-7 -68h33z" />
    <glyph glyph-name="six.numr" horiz-adv-x="702" 
d="M424 1174q116 -21 184 -99q68 -79 68 -192q0 -133 -88 -215t-238 -82q-146 0 -235 83q-88 82 -88 214q0 87 41 157l239 394h275zM350 807q78 0 78 76q0 73 -78 73q-76 0 -76 -73q0 -76 76 -76z" />
    <glyph glyph-name="seven.numr" horiz-adv-x="618" 
d="M0 1434h592v-203l-232 -617h-276l219 582h-303v238z" />
    <glyph glyph-name="eight.numr" horiz-adv-x="714" 
d="M567 1042q117 -69 117 -202q0 -117 -86 -186q-84 -68 -240 -68q-154 0 -240 68q-87 69 -87 186q0 133 119 202q-91 68 -91 170q0 116 85 183t214 67q130 0 213 -67q84 -67 84 -183q0 -104 -88 -170zM358 1245q-69 0 -69 -57q0 -55 69 -55q68 0 68 55q0 57 -68 57z
M358 805q38 0 58 19t20 50q0 33 -20 50q-21 18 -58 18q-77 0 -77 -68q0 -69 77 -69z" />
    <glyph glyph-name="nine.numr" horiz-adv-x="702" 
d="M672 1165q0 -87 -41 -157l-240 -394h-274l157 260q-116 18 -184 98q-67 79 -67 193q0 132 88 214q89 83 235 83q150 0 238 -82t88 -215zM346 1241q-76 0 -76 -76q0 -73 76 -73q78 0 78 73q0 76 -78 76z" />
    <glyph glyph-name="zero.sups" horiz-adv-x="837" 
d="M418 913q-172 0 -277 118q-104 117 -104 321q0 203 104 320q105 118 277 118t277 -118q106 -120 106 -320q0 -201 -106 -321q-105 -118 -277 -118zM418 1182q104 0 104 170t-104 170q-105 0 -105 -170t105 -170z" />
    <glyph glyph-name="one.sups" horiz-adv-x="565" 
d="M260 1761h232v-819h-269v545l-162 -43l-61 223z" />
    <glyph glyph-name="two.sups" horiz-adv-x="729" 
d="M45 942v182l293 285q59 59 59 98q0 45 -53 45q-55 0 -94 -90l-219 123q96 205 323 205q128 0 219 -74t91 -190q0 -128 -144 -262l-86 -82h238v-240h-627z" />
    <glyph glyph-name="three.sups" horiz-adv-x="686" 
d="M500 1427q168 -62 168 -229q0 -137 -89 -211t-241 -74q-246 0 -332 193l221 127q30 -88 111 -88q65 0 65 53q0 51 -65 51h-57l-95 140l115 135h-254v237h586v-178z" />
    <glyph glyph-name="four.sups" horiz-adv-x="741" 
d="M715 1292v-235h-72v-115h-250v115h-377v235l238 469h283l-228 -469h84v129h250v-129h72z" />
    <glyph glyph-name="five.sups" horiz-adv-x="677" 
d="M352 1456q139 0 220 -66t81 -202q0 -137 -86 -206q-85 -69 -225 -69q-246 0 -332 193l219 115q30 -84 107 -84q72 0 72 55t-70 55h-272l34 514h516v-237h-290l-7 -68h33z" />
    <glyph glyph-name="six.sups" horiz-adv-x="702" 
d="M424 1501q117 -21 184 -98q68 -79 68 -193q0 -133 -88 -215t-238 -82q-146 0 -235 83q-88 82 -88 214q0 88 41 158l239 393h275zM350 1135q78 0 78 75q0 74 -78 74q-76 0 -76 -74q0 -75 76 -75z" />
    <glyph glyph-name="seven.sups" horiz-adv-x="618" 
d="M0 1761h592v-202l-232 -617h-276l219 582h-303v237z" />
    <glyph glyph-name="eight.sups" horiz-adv-x="714" 
d="M567 1370q117 -69 117 -203q0 -116 -86 -185t-240 -69q-153 0 -240 69t-87 185q0 134 119 203q-91 68 -91 170q0 115 85 182q86 68 214 68t213 -68q84 -68 84 -182q0 -104 -88 -170zM358 1573q-69 0 -69 -57q0 -56 69 -56q68 0 68 56q0 57 -68 57zM358 1133q38 0 58 19
t20 50q0 32 -20 49q-22 19 -58 19q-77 0 -77 -68q0 -69 77 -69z" />
    <glyph glyph-name="nine.sups" horiz-adv-x="702" 
d="M672 1493q0 -88 -41 -158l-240 -393h-274l157 260q-117 18 -184 97t-67 194q0 132 88 214q89 83 235 83q150 0 238 -82t88 -215zM346 1569q-76 0 -76 -76q0 -74 76 -74q78 0 78 74q0 76 -78 76z" />
    <glyph glyph-name="cent.tf" 
d="M662 508q127 0 178 102l290 -168q-67 -122 -191 -194t-275 -72q-56 0 -115 10l-60 -186h-129l72 223q-141 62 -228 196q-85 131 -85 298q0 230 155 385t390 155q54 0 100 -8l59 185h129l-71 -220q163 -67 249 -221l-290 -168q-18 38 -62 68l-125 -385h9zM461 717
q0 -111 78 -168l120 377q-83 -1 -142 -60q-56 -56 -56 -149z" />
    <glyph glyph-name="dollar.tf" 
d="M1165 416q0 -192 -126 -308q-128 -117 -341 -135v-178h-143v176q-198 12 -331 106q-131 92 -187 245l317 178q62 -155 201 -183v244q-2 2 -4 2q-110 38 -182 72q-74 35 -144 88q-68 52 -103 129q-34 75 -34 174q0 195 130 309q132 115 337 127v176h143v-180
q315 -39 439 -317l-312 -174q-38 108 -127 141v-242q86 -30 124 -46q48 -21 107 -48q62 -29 98 -60q29 -25 71 -74q37 -43 52 -99q15 -55 15 -123zM451 1028q0 -60 104 -106v198q-104 -15 -104 -92zM698 313q107 15 107 88q0 35 -25 58q-24 23 -82 47v-193z" />
    <glyph glyph-name="Euro.tf" 
d="M881 465l305 -176q-61 -145 -184 -233q-122 -87 -285 -87q-221 0 -365 146q-142 144 -186 397h-139v172h123v33v39h-123v172h139q43 250 185 393t360 143q162 0 280 -85q120 -87 185 -230l-308 -176q-51 135 -157 135q-131 0 -174 -180h276v-172h-297v-39v-33h297v-172
h-276q43 -186 180 -186q107 0 164 139z" />
    <glyph glyph-name="florin.tf" 
d="M1176 1110q-97 30 -169 3q-73 -27 -94 -109l-30 -121h221v-326h-305l-162 -620q-60 -228 -226 -312q-167 -84 -380 -35v336q210 -60 254 107l139 524h-217v326h305l57 217q60 224 228 310q168 85 379 36v-336z" />
    <glyph glyph-name="uni20BD.tf" 
d="M664 473h-148v-82h377v-203h-377v-188h-366v188h-130v203h130v82h-130v326h130v635h514q216 0 364 -136t148 -346q0 -223 -145 -351t-367 -128zM516 1085v-286h148q64 0 104 39q41 39 41 104q0 66 -41 105q-39 38 -104 38h-148z" />
    <glyph glyph-name="sterling.tf" 
d="M545 354h641v-354h-1135v354h127v203h-106v287h106v151q0 225 143 347t336 122q352 0 496 -319l-317 -176q-23 74 -61 110q-37 35 -97 35q-63 0 -98 -38t-35 -101v-131h416v-287h-416v-203z" />
    <glyph glyph-name="yen.tf" 
d="M1206 1434l-352 -672h246v-193h-314v-84h314v-190h-314v-295h-366v295h-311v190h311v84h-311v193h245l-354 672h412l192 -433l193 433h409z" />
    <glyph glyph-name="brevecy" horiz-adv-x="825" 
d="M82 1135v286h661v-286h-661z" />
    </font>
</defs>
</svg>
